<?xml version="1.0" standalone="no"?>
<!DOCTYPE svg PUBLIC "-//W3C//DTD SVG 1.1//EN" "http://www.w3.org/Graphics/SVG/1.1/DTD/svg11.dtd">
<svg xmlns="http://www.w3.org/2000/svg">
<metadata>Copyright (C) 2019 by original authors @ fontello.com</metadata>
<defs>
<font id="iconsminds" horiz-adv-x="1000" >
<font-face font-family="iconsminds" font-weight="400" font-stretch="normal" units-per-em="1000" ascent="850" descent="-150" />
<missing-glyph horiz-adv-x="1000" />
<glyph glyph-name="add-space-after-paragraph" unicode="&#xe800;" d="M43 58c-4 0-8 2-12 4-10 6-12 19-6 29l91 134-91 134c-6 10-4 23 6 29 9 6 22 4 29-5l99-146c5-7 5-17 0-24l-99-146c-4-5-11-9-17-9z m915 563h-709c-11 0-21 9-21 21s10 21 21 21h709c11 0 20-10 20-21s-9-21-20-21z m-417-167h-292c-11 0-21 10-21 21s10 21 21 21h292c11 0 21-9 21-21s-10-21-21-21z m250-125h-542c-11 0-21 10-21 21 0 12 10 21 21 21h542c11 0 21-9 21-21 0-11-10-21-21-21z m-500-125h-42c-11 0-21 10-21 21s10 21 21 21h42c11 0 21-9 21-21s-10-21-21-21z m167 0h-42c-12 0-21 10-21 21s9 21 21 21h42c11 0 20-9 20-21s-9-21-20-21z m166 0h-41c-12 0-21 10-21 21s9 21 21 21h41c12 0 21-9 21-21s-9-21-21-21z m167 0h-42c-11 0-21 10-21 21s10 21 21 21h42c11 0 21-9 21-21s-10-21-21-21z m167 0h-42c-11 0-21 10-21 21s10 21 21 21h42c11 0 20-9 20-21s-9-21-20-21z m-667-83h-42c-11 0-21 9-21 21s10 21 21 21h42c11 0 21-10 21-21s-10-21-21-21z m167 0h-42c-12 0-21 9-21 21s9 21 21 21h42c11 0 20-10 20-21s-9-21-20-21z m166 0h-41c-12 0-21 9-21 21s9 21 21 21h41c12 0 21-10 21-21s-9-21-21-21z m167 0h-42c-11 0-21 9-21 21s10 21 21 21h42c11 0 21-10 21-21s-10-21-21-21z m167 0h-42c-11 0-21 9-21 21s10 21 21 21h42c11 0 20-10 20-21s-9-21-20-21z" horiz-adv-x="1000" />

<glyph glyph-name="add-space-before-paragraph" unicode="&#xe801;" d="M708 79h-459c-11 0-21 10-21 21s10 21 21 21h459c11 0 20-10 20-21s-9-21-20-21z m83 250h-542c-11 0-21 10-21 21 0 12 10 21 21 21h542c11 0 21-9 21-21 0-11-10-21-21-21z m-292-125h-250c-11 0-21 10-21 21s10 21 21 21h250c12 0 21-10 21-21s-9-21-21-21z m-456 104c-4 0-8 2-12 4-10 6-12 19-6 29l91 134-91 134c-6 10-4 23 6 29 9 7 22 4 29-5l99-146c5-7 5-17 0-24l-99-146c-4-5-11-9-17-9z m248 230h-42c-11 0-21 9-21 20s10 21 21 21h42c11 0 21-9 21-21s-10-20-21-20z m167 0h-42c-12 0-21 9-21 20s9 21 21 21h42c11 0 20-9 20-21s-9-20-20-20z m166 0h-41c-12 0-21 9-21 20s9 21 21 21h41c12 0 21-9 21-21s-9-20-21-20z m167 0h-42c-11 0-21 9-21 20s10 21 21 21h42c11 0 21-9 21-21s-10-20-21-20z m167 0h-42c-11 0-21 9-21 20s10 21 21 21h42c11 0 20-9 20-21s-9-20-20-20z m-667-84h-42c-11 0-21 10-21 21s10 21 21 21h42c11 0 21-9 21-21s-10-21-21-21z m167 0h-42c-12 0-21 10-21 21s9 21 21 21h42c11 0 20-9 20-21s-9-21-20-21z m166 0h-41c-12 0-21 10-21 21s9 21 21 21h41c12 0 21-9 21-21s-9-21-21-21z m167 0h-42c-11 0-21 10-21 21s10 21 21 21h42c11 0 21-9 21-21s-10-21-21-21z m167 0h-42c-11 0-21 10-21 21s10 21 21 21h42c11 0 20-9 20-21s-9-21-20-21z" horiz-adv-x="1000" />

<glyph glyph-name="align-center" unicode="&#xe802;" d="M958 579h-916c-12 0-21 10-21 21s9 21 21 21h916c12 0 21-9 21-21s-9-21-21-21z m-125-125h-708c-11 0-21 10-21 21s10 21 21 21h708c12 0 21-9 21-21s-9-21-21-21z m-166-125h-334c-11 0-20 10-20 21s9 21 20 21h334c11 0 21-9 21-21s-10-21-21-21z m125-125h-625c-12 0-21 10-21 21s9 21 21 21h625c11 0 21-9 21-21s-10-21-21-21z m166-125h-916c-12 0-21 10-21 21s9 21 21 21h916c12 0 21-9 21-21s-9-21-21-21z" horiz-adv-x="1000" />

<glyph glyph-name="align-justify-all" unicode="&#xe803;" d="M958 579h-916c-12 0-21 10-21 21s9 21 21 21h916c12 0 21-9 21-21s-9-21-21-21z m0-125h-916c-12 0-21 10-21 21s9 21 21 21h916c12 0 21-9 21-21s-9-21-21-21z m0-125h-916c-12 0-21 10-21 21s9 21 21 21h916c12 0 21-9 21-21s-9-21-21-21z m0-125h-916c-12 0-21 10-21 21s9 21 21 21h916c12 0 21-9 21-21s-9-21-21-21z m0-125h-916c-12 0-21 10-21 21s9 21 21 21h916c12 0 21-9 21-21s-9-21-21-21z" horiz-adv-x="1000" />

<glyph glyph-name="align-justify-center" unicode="&#xe804;" d="M958 579h-916c-12 0-21 10-21 21s9 21 21 21h916c12 0 21-9 21-21s-9-21-21-21z m0-125h-916c-12 0-21 10-21 21s9 21 21 21h916c12 0 21-9 21-21s-9-21-21-21z m0-125h-916c-12 0-21 10-21 21s9 21 21 21h916c12 0 21-9 21-21s-9-21-21-21z m0-125h-916c-12 0-21 10-21 21s9 21 21 21h916c12 0 21-9 21-21s-9-21-21-21z m-208-125h-500c-11 0-21 10-21 21s10 21 21 21h500c12 0 21-9 21-21s-9-21-21-21z" horiz-adv-x="1000" />

<glyph glyph-name="align-justify-left" unicode="&#xe805;" d="M958 579h-916c-12 0-21 10-21 21s9 21 21 21h916c12 0 21-9 21-21s-9-21-21-21z m0-125h-916c-12 0-21 10-21 21s9 21 21 21h916c12 0 21-9 21-21s-9-21-21-21z m0-125h-916c-12 0-21 10-21 21s9 21 21 21h916c12 0 21-9 21-21s-9-21-21-21z m0-125h-916c-12 0-21 10-21 21s9 21 21 21h916c12 0 21-9 21-21s-9-21-21-21z m0-125h-500c-11 0-20 10-20 21s9 21 20 21h500c12 0 21-9 21-21s-9-21-21-21z" horiz-adv-x="1000" />

<glyph glyph-name="align-justify-right" unicode="&#xe806;" d="M958 579h-916c-12 0-21 10-21 21s9 21 21 21h916c12 0 21-9 21-21s-9-21-21-21z m0-125h-916c-12 0-21 10-21 21s9 21 21 21h916c12 0 21-9 21-21s-9-21-21-21z m0-125h-916c-12 0-21 10-21 21s9 21 21 21h916c12 0 21-9 21-21s-9-21-21-21z m0-125h-916c-12 0-21 10-21 21s9 21 21 21h916c12 0 21-9 21-21s-9-21-21-21z m-416-125h-500c-12 0-21 10-21 21s9 21 21 21h500c11 0 21-9 21-21s-10-21-21-21z" horiz-adv-x="1000" />

<glyph glyph-name="align-left" unicode="&#xe807;" d="M958 579h-916c-12 0-21 10-21 21s9 21 21 21h916c12 0 21-9 21-21s-9-21-21-21z m0-125h-708c-11 0-21 10-21 21s10 21 21 21h708c12 0 21-9 21-21s-9-21-21-21z m0-125h-333c-11 0-21 10-21 21s10 21 21 21h333c12 0 21-9 21-21s-9-21-21-21z m0-125h-625c-11 0-20 10-20 21s9 21 20 21h625c12 0 21-9 21-21s-9-21-21-21z m0-125h-916c-12 0-21 10-21 21s9 21 21 21h916c12 0 21-9 21-21s-9-21-21-21z" horiz-adv-x="1000" />

<glyph glyph-name="align-right" unicode="&#xe808;" d="M979 579h-958c-12 0-21 10-21 21s9 21 21 21h958c12 0 21-9 21-21s-9-21-21-21z m-208-125h-750c-12 0-21 10-21 21s9 21 21 21h750c11 0 21-9 21-21s-10-21-21-21z m-375-125h-375c-12 0-21 10-21 21s9 21 21 21h375c11 0 21-9 21-21s-10-21-21-21z m292-125h-667c-12 0-21 10-21 21s9 21 21 21h667c11 0 20-9 20-21s-9-21-20-21z m-125-125h-542c-12 0-21 10-21 21s9 21 21 21h542c11 0 20-9 20-21s-9-21-20-21z" horiz-adv-x="1000" />

<glyph glyph-name="decrase-inedit" unicode="&#xe809;" d="M825 579h-792c-11 0-21 10-21 21s10 21 21 21h792c11 0 21-9 21-21s-10-21-21-21z m0-125h-792c-11 0-21 10-21 21s10 21 21 21h792c11 0 21-9 21-21s-10-21-21-21z m-250-125h-542c-11 0-21 10-21 21s10 21 21 21h542c11 0 21-9 21-21s-10-21-21-21z m0-125h-542c-11 0-21 10-21 21s10 21 21 21h542c11 0 21-9 21-21s-10-21-21-21z m250-125h-792c-11 0-21 10-21 21s10 21 21 21h792c11 0 21-9 21-21s-10-21-21-21z m142 21c-7 0-14 4-18 10l-99 167c-4 6-4 15 0 21l99 167c6 10 19 13 29 7 10-6 13-18 7-28l-93-156 93-157c6-9 3-22-7-28-4-2-7-3-11-3z" horiz-adv-x="1000" />

<glyph glyph-name="increase-inedit" unicode="&#xe80a;" d="M783 579h-750c-11 0-21 10-21 21s10 21 21 21h750c11 0 21-9 21-21s-10-21-21-21z m0-125h-750c-11 0-21 10-21 21s10 21 21 21h750c11 0 21-9 21-21s-10-21-21-21z m-250-125h-500c-11 0-21 10-21 21s10 21 21 21h500c11 0 21-9 21-21s-10-21-21-21z m0-125h-500c-11 0-21 10-21 21s10 21 21 21h500c11 0 21-9 21-21s-10-21-21-21z m250-125h-750c-11 0-21 10-21 21s10 21 21 21h750c11 0 21-9 21-21s-10-21-21-21z m85 21c-4 0-7 1-11 3-9 6-13 19-7 29l93 156-93 156c-6 9-2 22 7 28 10 6 23 3 29-7l99-167c4-6 4-15 0-21l-99-167c-4-6-11-10-18-10z" horiz-adv-x="1000" />

<glyph glyph-name="indent-first-line" unicode="&#xe80b;" d="M958 454h-209c-11 0-21 10-21 21s10 21 21 21h209c11 0 20-9 20-21s-9-21-20-21z m-209-125h-500c-11 0-21 10-21 21 0 12 10 21 21 21h500c12 0 21-9 21-21 0-11-9-21-21-21z m-291-125h-209c-11 0-21 10-21 21s10 21 21 21h209c11 0 20-10 20-21s-9-21-20-21z m208-125h-417c-11 0-21 10-21 21s10 21 21 21h417c11 0 21-10 21-21s-10-21-21-21z m-375 375h-42c-11 0-21 10-21 21s10 21 21 21h42c11 0 21-9 21-21s-10-21-21-21z m125 0h-42c-11 0-21 10-21 21s10 21 21 21h42c11 0 21-9 21-21s-10-21-21-21z m125 0h-42c-11 0-21 10-21 21s10 21 21 21h42c11 0 21-9 21-21s-10-21-21-21z m125 0h-42c-11 0-21 10-21 21s10 21 21 21h42c11 0 21-9 21-21s-10-21-21-21z m-623-146c-4 0-8 2-12 4-10 6-12 19-6 29l91 134-91 134c-6 10-4 23 6 29 9 7 22 4 29-5l99-146c5-7 5-17 0-24l-99-146c-4-5-11-9-17-9z" horiz-adv-x="1000" />

<glyph glyph-name="indent-left-margin" unicode="&#xe80c;" d="M658 579h-625c-11 0-21 10-21 21s10 21 21 21h625c11 0 21-9 21-21s-10-21-21-21z m-208-125h-417c-11 0-21 10-21 21s10 21 21 21h417c11 0 21-9 21-21s-10-21-21-21z m-292-125h-125c-11 0-21 10-21 21s10 21 21 21h125c11 0 21-9 21-21s-10-21-21-21z m208-125h-333c-11 0-21 10-21 21s10 21 21 21h333c12 0 21-9 21-21s-9-21-21-21z m292-125h-625c-11 0-21 10-21 21s10 21 21 21h625c11 0 21-9 21-21s-10-21-21-21z m92-21c-11 0-21 10-21 21v542c0 11 10 21 21 21s21-10 21-21v-542c0-11-9-21-21-21z m217 84c-7 0-14 3-18 10l-99 167c-4 6-4 14 0 21l99 167c6 9 19 13 29 7 10-6 13-19 7-29l-93-156 93-156c6-10 3-22-7-28-4-2-7-3-11-3z" horiz-adv-x="1000" />

<glyph glyph-name="indent-right-margin" unicode="&#xe80d;" d="M978 579h-666c-12 0-21 10-21 21s9 21 21 21h666c12 0 21-9 21-21s-9-21-21-21z m-208-125h-458c-12 0-21 10-21 21s9 21 21 21h458c11 0 21-9 21-21s-10-21-21-21z m-292-125h-166c-12 0-21 10-21 21s9 21 21 21h166c12 0 21-9 21-21s-9-21-21-21z m209-125h-375c-12 0-21 10-21 21s9 21 21 21h375c11 0 21-9 21-21s-10-21-21-21z m291-125h-666c-12 0-21 10-21 21s9 21 21 21h666c12 0 21-9 21-21s-9-21-21-21z m-770-21c-11 0-20 10-20 21v542c0 11 9 21 20 21s21-10 21-21v-542c0-11-9-21-21-21z m-167 84c-4 0-7 1-11 3-10 6-13 18-7 28l93 156-93 156c-6 10-3 23 7 29 10 6 23 2 29-7l99-167c4-7 4-15 0-21l-99-167c-4-7-11-10-18-10z" horiz-adv-x="1000" />

<glyph glyph-name="line-spacing" unicode="&#xe80e;" d="M541 621h-500c-12 0-21 9-21 21s9 21 21 21h500c11 0 21-10 21-21s-10-21-21-21z m0-125h-500c-12 0-21 9-21 21s9 21 21 21h500c11 0 21-10 21-21s-10-21-21-21z m-125-125h-375c-12 0-21 9-21 21s9 21 21 21h375c11 0 21-10 21-21s-10-21-21-21z m0-125h-375c-12 0-21 9-21 21s9 21 21 21h375c11 0 21-10 21-21s-10-21-21-21z m500 125h-250c-12 0-21 9-21 21s9 21 21 21h250c11 0 21-10 21-21s-10-21-21-21z m-375-250h-500c-12 0-21 9-21 21s9 21 21 21h500c11 0 21-10 21-21s-10-21-21-21z m375 125h-250c-12 0-21 9-21 21s9 21 21 21h250c11 0 21-10 21-21s-10-21-21-21z m43-167c-3 0-6 1-9 2l-158 77-159-77c-10-5-23 0-28 10-5 10 0 23 10 28l168 81c5 3 12 3 18 0l167-81c11-5 15-18 10-28-4-7-11-12-19-12z m-167 375c-3 0-6 1-9 2l-168 82c-10 5-15 17-10 28 5 10 18 14 28 9l159-77 158 77c10 5 23 1 28-9 5-11 1-23-10-28l-167-82c-3-1-6-2-9-2z" horiz-adv-x="1000" />

<glyph glyph-name="arrow-fork" unicode="&#xe80f;" d="M500-129c-11 0-21 9-21 21v416c0 12 10 21 21 21 12 0 21-9 21-21v-416c0-12-9-21-21-21z m0 427c-11 0-21 9-21 21 0 11 10 21 21 21 55 0 104 54 104 114v354c0 12 10 21 21 21 12 0 21-9 21-21v-354c0-83-68-156-146-156z m0 0c-78 0-146 73-146 156v229c0 12 10 21 21 21 12 0 21-9 21-21v-229c0-60 50-114 104-114 12 0 21-10 21-21 0-12-9-21-21-21z m229 406c-4 0-9 2-13 5l-91 73-91-73c-9-7-22-6-29 3-8 9-6 22 3 29l104 84c8 6 18 6 26 0l104-84c9-7 11-20 3-29-4-5-10-8-16-8z m-250-83c-4 0-9 1-13 4l-91 73-91-73c-9-7-22-5-29 4-8 9-6 22 3 29l104 83c8 6 18 6 26 0l104-83c9-7 11-20 4-29-5-5-11-8-17-8z" horiz-adv-x="1000" />

<glyph glyph-name="arrow-from" unicode="&#xe810;" d="M750 277c-4 0-9 2-13 5-9 7-10 20-3 29l73 91-73 91c-7 9-6 22 3 30 9 7 22 5 29-4l84-104c6-7 6-18 0-26l-84-104c-4-5-10-8-16-8z m-562-83c-12 0-21 9-21 21v62c0 84 88 146 166 146h500c12 0 21-9 21-21s-9-21-21-21h-500c-56 0-125-46-125-104v-62c0-12-9-21-20-21z m770-21h-916c-12 0-21 9-21 21s9 21 21 21h916c12 0 21-10 21-21s-9-21-21-21z" horiz-adv-x="1000" />

<glyph glyph-name="arrow-inside-45" unicode="&#xe811;" d="M958-67h-666c-12 0-21 10-21 21v792c0 11 9 21 21 21h666c12 0 21-10 21-21v-792c0-11-9-21-21-21z m-645 42h625v750h-625v-750z m312 354c-11 0-21 10-21 21v83h-83c-12 0-21 10-21 21s9 21 21 21h104c12 0 21-9 21-21v-104c0-11-9-21-21-21z m-458-354c-6 0-11 2-15 6-8 8-8 21 0 30l425 424c8 8 21 8 29 0 8-8 8-21 0-29l-425-425c-4-4-9-6-14-6z m333 563c-11 0-21 9-21 20v84h-83c-12 0-21 9-21 21s9 20 21 20h104c12 0 21-9 21-20v-105c0-11-9-20-21-20z m-458-355c-6 0-11 2-15 6-8 9-8 22 0 30l425 425c8 8 21 8 29 0 8-9 8-22 0-30l-425-425c-4-4-9-6-14-6z" horiz-adv-x="1000" />

<glyph glyph-name="arrow-inside-gap-45" unicode="&#xe812;" d="M646 288c-12 0-21 10-21 21v208c0 5 1 9 4 12l147 208c7 9 20 11 29 4 9-6 12-19 5-29l-143-201v-202c0-12-10-21-21-21z m-292 0c-11 0-21 10-21 21v208c0 5 2 9 4 12l147 208c7 9 20 11 29 4 10-6 12-19 5-29l-143-201v-202c0-12-9-21-21-21z m-250-333c-11 0-21 9-21 21v500h-83c-12 0-21 9-21 21s9 20 21 20h104c12 0 21-9 21-20v-521c0-12-9-21-21-21z m792 0c-12 0-21 9-21 21v521c0 11 9 20 21 20h104c12 0 21-9 21-20s-9-21-21-21h-83v-500c0-12-10-21-21-21z m-542 330c-4 0-9 2-13 5l-104 83c-9 7-10 20-3 29 7 9 20 11 29 3l91-72 91 72c9 8 22 6 30-3 7-9 5-22-4-29l-104-83c-4-3-8-5-13-5z m292 0c-5 0-9 2-13 5l-104 83c-9 7-11 20-4 29 8 9 21 11 30 3l91-72 91 72c9 8 22 6 29-3 8-9 6-22-3-29l-104-83c-4-3-9-5-13-5z" horiz-adv-x="1042" />

<glyph glyph-name="arrow-inside-gap" unicode="&#xe813;" d="M354-4c-4 0-9 1-13 4l-104 84c-9 7-10 20-3 29 7 9 20 11 29 3l91-73 91 73c9 7 22 6 30-3 7-9 5-22-4-29l-104-84c-4-3-8-4-13-4z m0 0c-11 0-21 9-21 21v791c0 12 10 21 21 21s21-9 21-21v-791c0-12-9-21-21-21z m292 0c-5 0-9 1-13 4l-104 84c-9 7-11 20-4 29 8 9 21 11 30 3l91-73 91 73c9 7 22 6 29-3 8-9 6-22-3-29l-104-84c-4-3-9-4-13-4z m0 0c-12 0-21 9-21 21v791c0 12 9 21 21 21s21-9 21-21v-791c0-12-10-21-21-21z m-500-125c-12 0-21 9-21 21v500h-125c-12 0-21 9-21 21s9 20 21 20h146c11 0 21-9 21-20v-521c0-12-10-21-21-21z m708 0c-11 0-21 9-21 21v521c0 11 10 20 21 20h146c12 0 21-9 21-20s-9-21-21-21h-125v-500c0-12-9-21-21-21z" horiz-adv-x="1042" />

<glyph glyph-name="arrow-inside" unicode="&#xe814;" d="M573 371c-5 0-9 1-13 4-9 8-10 21-3 30l73 91-73 91c-7 9-6 22 3 29 9 8 22 6 29-3l84-104c6-8 6-19 0-26l-84-104c-4-5-10-8-16-8z m396-438h-750c-12 0-21 10-21 21v792c0 11 9 21 21 21h750c11 0 21-10 21-21v-792c0-11-10-21-21-21z m-729 42h708v750h-708v-750z m416 500h-625c-11 0-21 9-21 21s10 21 21 21h625c12 0 21-10 21-21s-9-21-21-21z m-83-396c-5 0-9 2-13 5-9 7-10 20-3 29l73 91-73 91c-7 9-6 22 3 30 9 7 22 5 29-4l84-104c6-7 6-18 0-26l-84-104c-4-5-10-8-16-8z m83 104h-625c-11 0-21 10-21 21s10 21 21 21h625c12 0 21-9 21-21s-9-21-21-21z" horiz-adv-x="1000" />

<glyph glyph-name="arrow-into" unicode="&#xe815;" d="M563 267c-5 0-10 1-13 4l-105 84c-9 7-10 20-3 29 7 9 20 10 29 3l92-73 91 73c9 7 22 6 29-3 7-9 6-22-3-29l-104-84c-4-3-9-4-13-4z m0 0c-12 0-21 9-21 21v62c0 50-22 104-84 104h-416c-12 0-21 10-21 21s9 21 21 21h416c75 0 125-59 125-146v-62c0-12-9-21-20-21z m395-63h-916c-12 0-21 10-21 21s9 21 21 21h916c12 0 21-9 21-21s-9-21-21-21z" horiz-adv-x="1000" />

<glyph glyph-name="arrow-junction" unicode="&#xe817;" d="M708 538c-4 0-9 1-13 4-9 7-10 20-3 29l73 92-73 91c-7 9-6 22 3 29 9 7 22 6 30-3l83-104c6-8 6-19 0-26l-83-105c-4-5-11-7-17-7z m84 104h-459c-11 0-20 9-20 21s9 20 20 20h459c11 0 21-9 21-20s-10-21-21-21z m-500-354c-6 0-12 2-17 7l-83 105c-6 7-6 18 0 26l83 104c8 9 21 10 30 3 9-7 10-20 3-29l-73-91 73-92c7-9 6-22-3-29-4-3-9-4-13-4z m375 104h-459c-11 0-20 9-20 21s9 20 20 20h459c11 0 21-9 21-20s-10-21-21-21z m-146-521c-12 0-21 9-21 21v916c0 12 9 21 21 21s21-9 21-21v-916c0-12-10-21-21-21z" horiz-adv-x="1000" />

<glyph glyph-name="arrow-loop" unicode="&#xe818;" d="M667 579c-5 0-9 2-13 5-9 7-11 20-4 29l73 91-73 91c-7 9-5 22 4 30 9 7 22 5 29-4l83-104c6-7 6-18 0-26l-83-104c-4-5-10-8-16-8z m-334-708c-6 0-12 2-16 8l-83 104c-6 7-6 18 0 26l83 104c7 9 20 11 29 3 9-7 11-20 4-29l-73-91 73-91c7-9 5-22-4-30-3-3-8-4-13-4z m646 104h-729c-11 0-21 9-21 21s10 21 21 21h708v666h-125c-11 0-20 10-20 21s9 21 20 21h146c12 0 21-9 21-21v-708c0-12-9-21-21-21z m-812 0h-146c-12 0-21 9-21 21v708c0 12 9 21 21 21h729c12 0 21-9 21-21s-9-21-21-21h-708v-666h125c11 0 21-10 21-21s-10-21-21-21z" horiz-adv-x="1000" />

<glyph glyph-name="arrow-merge" unicode="&#xe819;" d="M958 329h-375c-11 0-20 10-20 21s9 21 20 21h375c12 0 21-9 21-21s-9-21-21-21z m-83-104c-4 0-9 2-13 5-9 7-10 20-3 29l73 91-73 91c-7 9-6 22 3 29 9 8 22 6 29-3l84-104c6-8 6-18 0-26l-84-104c-4-5-10-8-16-8z m-542 125c-4 0-9 2-13 5-9 7-10 20-3 29l73 91-73 91c-7 9-6 22 3 29 9 8 22 6 30-3l83-104c6-8 6-18 0-26l-83-104c-4-5-11-8-17-8z m-166-250c-5 0-9 2-13 5-9 7-11 20-4 29l73 91-73 91c-7 9-5 22 4 30 9 7 22 5 29-4l83-104c6-8 6-18 0-26l-83-104c-4-5-10-8-16-8z m416 229c-11 0-20 10-20 21 0 57-47 104-105 104h-416c-12 0-21 10-21 21s9 21 21 21h416c81 0 146-66 146-146 0-11-9-21-21-21z m-125-125h-416c-12 0-21 10-21 21s9 21 21 21h416c58 0 105 47 105 104 0 12 9 21 20 21 12 0 21-9 21-21 0-80-65-146-146-146z" horiz-adv-x="1000" />

<glyph glyph-name="arrow-mix" unicode="&#xe81a;" d="M875 454c-4 0-9 2-13 5-9 7-10 20-3 29l73 91-73 91c-7 9-6 22 3 30 9 7 22 5 29-4l84-104c6-7 6-18 0-26l-84-104c-4-5-10-8-16-8z m-750-458c-6 0-12 2-16 8l-84 104c-6 8-6 18 0 26l84 104c7 9 20 11 29 3 9-7 10-20 3-29l-73-91 73-91c7-9 6-22-3-30-4-3-8-4-13-4z m1 104h-84c-12 0-21 9-21 21s9 21 21 21h84c157 0 253 108 354 222 103 116 209 236 385 236h93c12 0 21-9 21-21s-9-21-21-21h-93c-157 0-253-108-354-222-103-116-209-236-385-236z m-1 354c-6 0-12 3-16 8l-84 104c-6 8-6 19 0 26l84 104c7 9 20 11 29 4 9-8 10-21 3-30l-73-91 73-91c7-9 6-22-3-29-4-3-8-5-13-5z m750-458c-4 0-9 1-13 4-9 8-10 21-3 30l73 91-73 91c-7 9-6 22 3 29 9 8 22 6 29-3l84-104c6-8 6-18 0-26l-84-104c-4-6-10-8-16-8z m83 104h-84c-175 0-284 120-390 236-104 114-202 222-359 222h-83c-12 0-21 10-21 21s9 21 21 21h83c175 0 284-120 390-236 104-114 202-222 359-222h84c12 0 21-10 21-21s-9-21-21-21z" horiz-adv-x="1000" />

<glyph glyph-name="arrow-out-left" unicode="&#xe81b;" d="M115 225c-6 0-12 3-16 8l-84 104c-6 8-6 18 0 26l84 104c7 9 20 11 29 4 9-8 10-21 3-30l-73-91 73-91c7-9 6-22-3-29-4-3-9-5-13-5z m854 104h-917c-12 0-21 10-21 21s9 21 21 21h917c11 0 20-9 20-21s-9-21-20-21z" horiz-adv-x="1000" />

<glyph glyph-name="arrow-out-right" unicode="&#xe81c;" d="M885 225c-4 0-9 2-13 5-9 7-10 20-3 29l73 91-73 91c-7 9-6 22 3 29 9 8 22 6 30-3l83-104c6-8 6-18 0-26l-83-104c-5-5-11-8-17-8z m63 104h-916c-12 0-21 10-21 21s9 21 21 21h916c12 0 21-9 21-21s-9-21-21-21z" horiz-adv-x="1000" />

<glyph glyph-name="arrow-outside-45" unicode="&#xe81d;" d="M958-67h-583c-11 0-21 10-21 21v792c0 11 10 21 21 21h583c12 0 21-10 21-21v-792c0-11-9-21-21-21z m-562 42h542v750h-542v-750z m-250 208h-104c-12 0-21 10-21 21v104c0 12 9 21 21 21s21-9 21-21v-83h83c11 0 21-9 21-21s-10-21-21-21z m-90 25c-5 0-11 2-15 6-8 8-8 21 0 29l425 425c8 8 21 8 29 0 9-8 9-21 0-29l-424-425c-4-4-10-6-15-6z m215-233h-104c-12 0-21 9-21 21v104c0 12 9 21 21 21s21-9 21-21v-83h83c11 0 21-10 21-21s-10-21-21-21z m-90 24c-5 0-11 2-15 7-8 8-8 21 0 29l425 425c8 8 21 8 29 0 9-9 9-22 0-30l-424-425c-4-4-10-6-15-6z" horiz-adv-x="1000" />

<glyph glyph-name="arrow-outside-gap-45" unicode="&#xe81e;" d="M604 631c-11 0-21 10-21 21v83h-83c-11 0-21 10-21 21s10 21 21 21h104c12 0 21-9 21-21v-104c0-11-9-21-21-21z m209 0c-12 0-21 10-21 21v83h-84c-11 0-20 10-20 21s9 21 20 21h105c11 0 20-9 20-21v-104c0-11-9-21-20-21z m-209-583c-11 0-21 9-21 21v416c0 5 2 9 5 13l188 249c7 9 20 11 30 4 9-7 11-20 4-29l-185-244v-409c0-12-9-21-21-21z m-208 0c-12 0-21 9-21 21v416c0 5 2 9 4 13l189 249c7 9 20 11 29 4 10-7 11-20 4-29l-184-244v-409c0-12-10-21-21-21z m-125-125c-12 0-21 9-21 21v500h-208c-12 0-21 9-21 21s9 20 21 20h229c11 0 21-9 21-20v-521c0-12-10-21-21-21z m458 0c-11 0-21 9-21 21v521c0 11 10 20 21 20h229c12 0 21-9 21-20s-9-21-21-21h-208v-500c0-12-9-21-21-21z" horiz-adv-x="1000" />

<glyph glyph-name="arrow-outside-gap" unicode="&#xe81f;" d="M250 703c-6 0-12 2-16 7-7 9-6 23 3 30l104 83c8 6 19 6 26 0l104-83c9-7 11-20 4-29-8-9-21-11-30-4l-91 73-91-73c-4-3-8-4-13-4z m104-706c-11 0-21 10-21 21v750c0 12 10 21 21 21s21-9 21-21v-750c0-11-9-21-21-21z m188 706c-6 0-12 2-17 7-7 9-5 23 4 30l104 83c7 6 18 6 26 0l104-83c9-7 11-20 3-29-7-9-20-11-29-4l-91 73-91-73c-4-3-9-4-13-4z m104-706c-12 0-21 10-21 21v750c0 12 9 21 21 21s21-9 21-21v-750c0-11-10-21-21-21z m-375-125c-12 0-21 10-21 21v500h-208c-12 0-21 10-21 21s9 21 21 21h229c11 0 21-9 21-21v-521c0-11-10-21-21-21z m458 0c-11 0-21 10-21 21v521c0 12 10 21 21 21h229c12 0 21-9 21-21s-9-21-21-21h-208v-500c0-11-9-21-21-21z" horiz-adv-x="1000" />

<glyph glyph-name="arrow-outside" unicode="&#xe820;" d="M115 371c-6 0-13 3-17 8l-83 104c-6 7-6 18 0 26l83 104c8 9 21 10 30 3 9-7 10-20 3-29l-73-91 73-91c7-9 6-22-3-30-4-3-9-4-13-4z m854-438h-750c-12 0-21 10-21 21v792c0 11 9 21 21 21h750c11 0 21-10 21-21v-792c0-11-10-21-21-21z m-729 42h708v750h-708v-750z m416 500h-625c-11 0-21 9-21 21s10 21 21 21h625c12 0 21-10 21-21s-9-21-21-21z m-541-396c-6 0-13 3-17 8l-83 104c-6 8-6 19 0 26l83 104c8 9 21 11 30 4 9-8 10-21 3-30l-73-91 73-91c7-9 6-22-3-29-4-3-9-5-13-5z m541 104h-625c-11 0-21 10-21 21s10 21 21 21h625c12 0 21-9 21-21s-9-21-21-21z" horiz-adv-x="1000" />

<glyph glyph-name="arrow-over" unicode="&#xe821;" d="M875 204c-4 0-9 2-13 5-9 7-10 20-3 29l73 91-73 91c-7 9-6 22 3 30 9 7 22 5 29-4l84-104c6-7 6-18 0-26l-84-104c-4-5-10-8-16-8z m-394 42c-46 0-83 37-83 82 0 45 37 82 83 82 45 0 82-37 82-82s-37-82-82-82z m0 122c-23 0-41-18-41-40 0-22 18-40 41-40 22 0 40 18 40 40 0 22-18 40-40 40z m477-60h-354c-11 0-21 10-21 21v21c0 57-46 104-104 104s-104-47-104-104v-21c0-11-9-21-21-21h-312c-12 0-21 10-21 21 0 12 9 21 21 21h291c0 80 66 146 146 146 81 0 146-66 146-146h333c12 0 21-9 21-21 0-11-9-21-21-21z" horiz-adv-x="1000" />

<glyph glyph-name="arrow-shuffle" unicode="&#xe822;" d="M875 454c-4 0-9 2-13 5-9 7-10 20-3 29l73 91-73 91c-7 9-6 22 3 30 9 7 22 5 29-4l84-104c6-7 6-18 0-26l-84-104c-4-5-10-8-16-8z m-327-45c-5 0-10 2-14 6-9 7-10 21-2 29 86 95 221 156 343 156h83c12 0 21-9 21-21s-9-21-21-21h-83c-111 0-234-55-312-142-4-4-10-7-15-7z m-505-309c-12 0-21 9-21 21s9 21 21 21c122 0 284 65 355 143 7 9 20 9 29 2 9-8 9-21 1-30-78-87-251-157-385-157z m832-104c-4 0-9 1-13 4-9 8-10 21-3 30l73 91-73 91c-7 9-6 22 3 29 9 8 22 6 29-3l84-104c6-8 6-18 0-26l-84-104c-4-6-10-8-16-8z m83 104h-84c-174 0-305 119-430 235-126 115-244 223-402 223-12 0-21 10-21 21s9 21 21 21c174 0 304-119 430-235 125-115 244-223 402-223h84c12 0 21-10 21-21s-9-21-21-21z" horiz-adv-x="1000" />

<glyph glyph-name="arrow-squiggly" unicode="&#xe823;" d="M876 11c-4 0-9 1-13 4-9 7-10 20-3 30l73 91-73 91c-7 9-6 22 3 29 9 7 22 6 30-3l83-104c6-8 6-19 0-26l-83-104c-5-6-11-8-17-8z m-647-127c-5 0-9 1-13 4-76 56-193 246-196 405-2 77 24 138 74 179 59 46 131 50 188 10 56-40 105-134 59-266-34-99-18-185 46-236 51-41 123-49 173-19 49 30 80 85 84 151 6 95-45 193-134 264-104 82-196 175-173 308 13 77 81 130 169 132 92 3 215-55 254-226 22-95 33-179 41-246 17-127 27-187 70-187h89c11 0 20-10 20-21 0-12-9-21-20-21h-89c-82 0-93 89-111 223-9 67-19 150-41 243-33 146-136 195-212 193-67-2-119-40-129-97-19-111 64-195 157-268 102-81 157-190 150-299-4-80-42-147-104-185-64-39-155-30-220 22-37 30-117 117-59 283 38 110 0 186-44 218-42 29-93 26-138-9-40-32-60-81-59-145 3-141 110-321 180-373 9-6 11-19 4-29-3-5-10-8-16-8z" horiz-adv-x="1000" />

<glyph glyph-name="arrow-through" unicode="&#xe824;" d="M958 329h-250c-11 0-20 10-20 21s9 21 20 21h250c12 0 21-9 21-21s-9-21-21-21z m-583 0h-333c-12 0-21 10-21 21s9 21 21 21h333c12 0 21-9 21-21s-9-21-21-21z m500-104c-4 0-9 2-13 5-9 7-10 20-3 29l73 91-73 91c-7 9-6 22 3 29 9 8 22 6 29-3l84-104c6-8 6-18 0-26l-84-104c-4-5-10-8-16-8z m-427-130c-141 0-255 114-255 255 0 141 114 255 255 255s255-114 255-255c0-141-114-255-255-255z m0 469c-118 0-214-96-214-214s96-213 214-213 214 95 214 213-96 214-214 214z" horiz-adv-x="1000" />

<glyph glyph-name="arrow-to" unicode="&#xe825;" d="M954 228c-6 0-12 3-16 8-92 115-241 189-422 207-186 20-384-23-480-103-9-7-22-6-29 3-8 9-7 22 2 29 105 87 315 133 512 113 191-20 351-99 450-223 7-9 5-22-4-30-3-3-8-4-13-4z m24-17h-105c-11 0-20 9-20 20s9 21 20 21h84v84c0 11 9 20 21 20s20-9 20-20v-105c0-11-9-20-20-20z" horiz-adv-x="1000" />

<glyph glyph-name="double-circle" unicode="&#xe826;" d="M551-97l0 0c-120 0-232 46-317 131-85 84-131 197-131 316 0 247 201 447 449 447 119 0 232-46 317-131 85-84 131-196 131-316 0-247-201-447-449-447z m1 853c-225 0-408-182-408-406 0-108 42-210 119-287 77-77 179-119 288-119 225 0 407 182 407 406 0 108-42 210-119 287-76 77-179 119-287 119z m-1-651c-135 0-246 110-246 245 0 66 26 127 72 173 47 47 108 72 174 72 136 0 246-110 246-245 0-65-25-127-72-173-46-47-108-72-174-72z m0 449c-54 0-106-22-144-60-39-38-60-90-60-144 0-112 92-204 204-204h0c55 0 106 22 145 60s60 90 60 144c0 112-92 204-205 204z m-428-225c-5 0-10 2-14 6l-103 101c-8 8-8 21 0 30 8 8 21 8 29 0l91-89 108 68c9 6 22 4 28-6 7-10 4-23-6-29l-121-77c-4-3-8-4-12-4z m654 0c-4 0-8 1-11 3l-124 74c-10 6-13 19-7 29 6 10 19 13 29 7l109-66 88 92c8 8 22 9 30 1 8-8 8-21 0-30l-99-103c-4-5-10-7-15-7z" horiz-adv-x="1000" />

<glyph glyph-name="full-view-2" unicode="&#xe827;" d="M958 558h-916c-12 0-21 10-21 21s9 21 21 21h916c12 0 21-9 21-21s-9-21-21-21z m-104-708h-708c-81 0-146 65-146 146v708c0 81 65 146 146 146h708c81 0 146-65 146-146v-708c0-81-65-146-146-146z m-708 958c-58 0-104-46-104-104v-708c0-58 46-104 104-104h708c58 0 104 46 104 104v708c0 58-46 104-104 104h-708z" horiz-adv-x="1000" />

<glyph glyph-name="full-view" unicode="&#xe828;" d="M801-150h-41c-12 0-21 9-21 21s9 21 21 21h41c12 0 21-10 21-21s-9-21-21-21z m-125 0h-41c-12 0-21 9-21 21s9 21 21 21h41c12 0 21-10 21-21s-9-21-21-21z m-124 0h-42c-11 0-21 9-21 21s10 21 21 21h42c11 0 20-10 20-21s-9-21-20-21z m-125 0h-42c-11 0-21 9-21 21s10 21 21 21h42c11 0 21-10 21-21s-10-21-21-21z m-125 0h-41c-12 0-21 9-21 21s9 21 21 21h41c12 0 21-10 21-21s-9-21-21-21z m-125 0h-31c-4 0-8 0-12 0-11 1-20 11-19 23 1 11 11 20 23 19 2 0 5 0 8 0h31c12 0 21-10 21-21 0-12-9-21-21-21z m707 3c-10 0-18 7-20 16-3 12 4 23 15 26 11 2 22 7 32 13 9 6 22 4 28-6 7-10 4-22-6-29-13-9-28-15-44-19-2 0-3-1-5-1z m-823 30c-5 0-10 2-14 6-12 11-22 24-29 38-6 10-2 23 8 28 10 6 23 2 28-8 6-11 13-20 21-28 9-7 9-21 2-29-5-4-10-7-16-7z m911 51c-2 0-4 0-7 1-10 4-16 16-12 27 3 11 5 22 5 34 0 11 10 21 21 21s21-8 21-20v-1c0-17-3-33-8-48-3-9-11-14-20-14z m-951 63c-12 0-21 9-21 20v42c0 12 9 21 21 21s21-9 21-21v-42c0-11-10-20-21-20z m958 63c-11 0-21 9-21 20v42c0 12 10 21 21 21s21-9 21-21v-42c0-11-9-20-21-20z m-958 61c-12 0-21 10-21 21v42c0 11 9 21 21 21s21-10 21-21v-42c0-11-10-21-21-21z m958 63c-11 0-21 10-21 21v42c0 11 10 21 21 21s21-10 21-21v-42c0-11-9-21-21-21z m-958 62c-12 0-21 9-21 21v42c0 11 9 20 21 20s21-9 21-20v-42c0-12-10-21-21-21z m958 63c-11 0-21 10-21 21v42c0 11 10 20 21 20s21-9 21-20v-42c0-12-9-21-21-21z m-958 62c-12 0-21 9-21 21v41c0 12 9 21 21 21s21-9 21-21v-41c0-12-10-21-21-21z m958 63c-11 0-21 9-21 21v41c0 12 10 21 21 21s21-9 21-21v-41c0-12-9-21-21-21z m-958 62c-12 0-21 9-21 20v42c0 12 9 21 21 21s21-9 21-21v-42c0-11-10-20-21-20z m958 63c-11 0-21 9-21 20v42c0 12 10 21 21 21s21-9 21-21v-42c0-11-9-20-21-20z m-958 61c-12 0-21 10-21 21v42c0 11 9 21 21 21s21-10 21-21v-42c0-11-10-21-21-21z m958 63c-11 0-21 10-21 21 0 12-2 23-5 34-4 11 2 23 13 27 10 3 22-2 26-13 5-16 8-31 8-48 0-11-9-21-21-21z m-943 60c-4 0-7 0-10 2-10 6-14 18-8 28 7 15 17 27 29 38 9 8 22 8 30-1 7-8 7-21-2-29-8-8-15-17-21-27-4-8-11-11-18-11z m886 45c-4 0-8 1-11 4-10 6-21 11-32 13-11 3-18 14-15 26 3 11 14 18 25 15 16-4 31-11 44-19 10-7 13-20 6-29-4-6-10-10-17-10z m-786 20c-11 0-20 8-21 19-1 12 8 22 19 23 4 0 8 0 12 0h32c11 0 20-9 20-21s-9-21-20-21h-32c-3 0-6 0-8 0-1 0-2 0-2 0z m665 0h-41c-12 0-21 10-21 21s9 21 21 21h41c12 0 21-9 21-21s-9-21-21-21z m-125 0h-41c-12 0-21 10-21 21s9 21 21 21h41c12 0 21-9 21-21s-9-21-21-21z m-124 0h-42c-11 0-21 10-21 21s10 21 21 21h42c11 0 21-9 21-21s-10-21-21-21z m-125 0h-42c-11 0-20 10-20 21s9 21 20 21h42c11 0 21-9 21-21s-10-21-21-21z m-125 0h-41c-12 0-21 10-21 21s9 21 21 21h41c12 0 21-9 21-21s-9-21-21-21z m177-583h-333c-81 0-146 65-146 146v333c0 81 65 146 146 146h333c81 0 146-65 146-146v-333c0-81-65-146-146-146z m-333 583c-58 0-104-46-104-104v-333c0-58 46-104 104-104h333c58 0 104 46 104 104v333c0 58-46 104-104 104h-333z m648-774c-5 0-10 2-14 6l-170 170c-8 9-8 22 0 30 8 8 22 8 30 0l169-171c8-8 8-21 0-29-4-4-9-6-15-6z m19-17h-105c-11 0-20 9-20 21s9 20 20 20h84v84c0 11 9 21 21 21s20-10 20-21v-104c0-12-9-21-20-21z" horiz-adv-x="1000" />

<glyph glyph-name="maximize" unicode="&#xe829;" d="M146 579c-12 0-21 10-21 21v104c0 12 9 21 21 21h104c12 0 21-9 21-21s-9-21-21-21h-83v-83c0-11-10-21-21-21z m708 0c-11 0-21 10-21 21v83h-83c-11 0-21 10-21 21s10 21 21 21h104c12 0 21-9 21-21v-104c0-11-9-21-21-21z m-21-583c-5 0-10 2-14 6l-667 667c-8 8-8 21 0 29s21 8 29 0l667-667c8-8 8-21 0-29-4-4-9-6-15-6z m21-21h-104c-11 0-21 9-21 21s10 21 21 21h83v83c0 12 10 21 21 21s21-9 21-21v-104c0-12-9-21-21-21z m-687 21c-6 0-11 2-15 6-8 8-8 21 0 29l667 667c8 8 21 8 29 0 8-8 8-21 0-29l-667-667c-4-4-9-6-14-6z m83-21h-104c-12 0-21 9-21 21v104c0 12 9 21 21 21s21-9 21-21v-83h83c12 0 21-10 21-21s-9-21-21-21z m604-125h-708c-81 0-146 65-146 146v708c0 81 65 146 146 146h708c81 0 146-65 146-146v-708c0-81-65-146-146-146z m-708 958c-58 0-104-46-104-104v-708c0-58 46-104 104-104h708c58 0 104 46 104 104v708c0 58-46 104-104 104h-708z" horiz-adv-x="1000" />

<glyph glyph-name="minimize" unicode="&#xe82a;" d="M667 496c-5 0-10 2-15 6-8 9-8 22 0 30l125 124c8 9 21 9 29 0 9-8 9-21 0-29l-124-125c-4-4-9-6-15-6z m83-21h-104c-12 0-21 9-21 21v104c0 12 9 21 21 21s21-9 21-21v-83h83c12 0 21-10 21-21s-9-21-21-21z m-417 21c-5 0-11 2-15 6l-124 125c-8 8-8 21 0 29s21 9 29 0l125-124c8-8 8-21 0-30-4-4-10-6-15-6z m21-21h-104c-11 0-21 9-21 21s10 21 21 21h83v83c0 12 10 21 21 21s21-9 21-21v-104c0-12-9-21-21-21z m438-437c-6 0-11 2-15 6l-125 124c-8 8-8 22 0 30 9 8 22 8 30 0l124-125c9-8 9-21 0-29-4-4-9-6-14-6z m-146 41c-12 0-21 10-21 21v104c0 12 9 21 21 21h104c12 0 21-9 21-21s-9-21-21-21h-83v-83c0-11-10-21-21-21z m-438-41c-5 0-10 2-14 6-8 8-8 21 0 29l124 125c8 8 22 8 30 0 8-8 8-22 0-30l-125-124c-4-4-9-6-15-6z m146 41c-11 0-21 10-21 21v83h-83c-11 0-21 10-21 21s10 21 21 21h104c12 0 21-9 21-21v-104c0-11-9-21-21-21z m500-229h-708c-81 0-146 65-146 146v708c0 81 65 146 146 146h708c81 0 146-65 146-146v-708c0-81-65-146-146-146z m-708 958c-58 0-104-46-104-104v-708c0-58 46-104 104-104h708c58 0 104 46 104 104v708c0 58-46 104-104 104h-708z" horiz-adv-x="1000" />

<glyph glyph-name="resize" unicode="&#xe82b;" d="M729 454c-11 0-21 10-21 21v83h-83c-11 0-21 10-21 21s10 21 21 21h104c12 0 21-9 21-21v-104c0-11-9-21-21-21z m229 146h-187c-12 0-21 9-21 21v187c0 12 9 21 21 21s21-9 21-21v-166h166c12 0 21-10 21-21s-9-21-21-21z m-666-479c-6 0-11 2-15 6-8 8-8 21 0 29l417 417c8 8 21 8 29 0 8-8 8-21 0-29l-417-417c-4-4-9-6-14-6z m83-21h-104c-12 0-21 9-21 21v104c0 12 9 21 21 21s21-9 21-21v-83h83c12 0 21-10 21-21s-9-21-21-21z m479-250h-708c-81 0-146 65-146 146v708c0 81 65 146 146 146h708c81 0 146-65 146-146v-708c0-81-65-146-146-146z m-708 958c-58 0-104-46-104-104v-708c0-58 46-104 104-104h708c58 0 104 46 104 104v708c0 58-46 104-104 104h-708z m83-937c-11 0-21 9-21 21v166h-166c-12 0-21 10-21 21s9 21 21 21h187c12 0 21-9 21-21v-187c0-12-9-21-21-21z" horiz-adv-x="1000" />

<glyph glyph-name="three-arrow-fork" unicode="&#xe82c;" d="M396 392c-5 0-9 1-13 4l-91 73-91-73c-9-7-22-5-30 4-7 8-5 22 4 29l104 83c7 6 18 6 26 0l104-83c9-7 10-21 3-29-4-6-10-8-16-8z m208 333c-4 0-9 2-13 5l-91 73-91-73c-9-8-22-6-29 3-8 9-6 22 3 29l104 83c8 7 18 7 26 0l104-83c9-7 11-20 4-29-5-5-11-8-17-8z m-104-875c-11 0-21 9-21 21v917c0 11 10 20 21 20 12 0 21-9 21-20v-917c0-12-9-21-21-21z m83 313h-62c-12 0-21 9-21 20s9 21 21 21h62c58 0 105 69 105 125v250c0 12 9 21 20 21 12 0 21-9 21-21v-250c0-79-62-166-146-166z m-104 0h-62c-84 0-146 87-146 166v125c0 12 9 21 21 21 11 0 21-9 21-21v-125c0-56 46-125 104-125h62c12 0 21-9 21-21s-9-20-21-20z m334 354c-5 0-10 1-13 4l-92 73-91-73c-9-7-22-5-29 4-7 8-6 22 3 29l104 83c8 6 19 6 26 0l105-83c9-7 10-21 3-29-4-6-10-8-16-8z" horiz-adv-x="1000" />

<glyph glyph-name="view-height" unicode="&#xe82d;" d="M500-4c-11 0-21 9-21 21v666c0 12 10 21 21 21s21-9 21-21v-666c0-12-9-21-21-21z m104 604c-4 0-9 2-13 5l-91 73-91-73c-9-8-22-6-29 3-8 9-6 22 3 29l104 83c8 7 18 7 26 0l104-83c9-7 11-20 3-29-4-5-10-8-16-8z m-104-625c-5 0-9 1-13 4l-104 84c-9 7-11 20-3 29 7 9 20 11 29 3l91-72 91 73c9 7 22 5 30-4 7-9 5-22-4-29l-104-83c-4-4-8-5-13-5z m104 833h-208c-12 0-21 10-21 21s9 21 21 21h208c12 0 21-9 21-21s-9-21-21-21z m0-958h-208c-12 0-21 9-21 21s9 21 21 21h208c12 0 21-10 21-21s-9-21-21-21z" horiz-adv-x="1000" />

<glyph glyph-name="view-width" unicode="&#xe82e;" d="M875 329h-750c-11 0-21 10-21 21s10 21 21 21h750c12 0 21-9 21-21s-9-21-21-21z m-83-104c-5 0-9 2-13 5-9 7-11 20-4 29l73 91-73 91c-7 9-5 22 4 29 9 8 22 6 29-3l83-104c6-8 6-18 0-26l-83-104c-4-5-10-8-16-8z m-584 0c-6 0-12 3-16 8l-83 104c-6 8-6 18 0 26l83 104c7 9 20 11 29 3 9-7 11-20 4-29l-73-91 73-91c7-9 5-22-4-29-3-3-8-5-13-5z m771 0c-11 0-21 9-21 21v208c0 12 10 21 21 21s21-9 21-21v-208c0-12-9-21-21-21z m-958 0c-12 0-21 9-21 21v208c0 12 9 21 21 21s21-9 21-21v-208c0-12-10-21-21-21z" horiz-adv-x="1000" />

<glyph glyph-name="arrow-around" unicode="&#xe82f;" d="M122 289c-5 0-10 2-14 6l-95 86c-8 8-9 21-1 29 8 9 21 9 29 2l82-75 92 63c9 7 22 4 29-5 6-9 4-22-6-29l-104-73c-4-2-8-4-12-4z m0 40c-12 0-21 10-21 21 0 220 179 399 400 399 173 0 325-109 380-273 4-11-2-23-13-26-11-4-23 2-27 13-48 146-185 245-340 245-198 0-358-161-358-358 0-11-10-21-21-21z m851-48c-5 0-11 2-15 6l-80 76-93-61c-9-6-22-4-28 6-7 9-4 22 5 29l107 70c8 6 19 5 26-2l92-88c8-8 9-21 1-30-4-4-10-6-15-6z m-472-330c-173 0-325 110-380 273-3 11 2 23 13 26 11 4 23-2 27-13 49-146 185-245 340-245 198 0 359 161 359 358 0 12 9 21 20 21 12 0 21-9 21-21 0-220-179-399-400-399z m0 274c-69 0-125 56-125 125 0 69 56 125 125 125 69 0 125-56 125-125 0-69-56-125-125-125z m0 208c-46 0-83-37-83-83 0-46 37-83 83-83 46 0 83 37 83 83 0 46-37 83-83 83z" horiz-adv-x="1000" />

<glyph glyph-name="arrow-barrier" unicode="&#xe830;" d="M271 600c-5 0-9 2-13 5l-91 73-91-73c-9-8-23-6-30 3-7 9-5 22 4 29l104 83c7 7 18 7 26 0l104-83c9-7 10-20 3-29-4-5-10-8-16-8z m-104-625c-12 0-21 9-21 21v708c0 12 9 21 21 21s21-9 21-21v-708c0-12-10-21-21-21z m437 625c-4 0-9 2-13 5l-91 73-91-73c-9-8-22-6-29 3-8 9-6 22 3 29l104 83c8 7 18 7 26 0l104-83c9-7 11-20 3-29-4-5-10-8-16-8z m-104-625c-11 0-21 9-21 21v708c0 12 10 21 21 21s21-9 21-21v-708c0-12-9-21-21-21z m438 625c-5 0-10 2-13 5l-92 73-91-73c-9-8-22-6-29 3-7 9-6 22 3 29l104 83c8 7 19 7 26 0l105-83c9-7 10-20 3-29-4-5-10-8-16-8z m-105-625c-11 0-20 9-20 21v708c0 12 9 21 20 21s21-9 21-21v-708c0-12-9-21-21-21z" horiz-adv-x="1000" />

<glyph glyph-name="arrow-circle" unicode="&#xe831;" d="M548-100c-248 0-450 202-450 450 0 248 202 450 450 450s450-202 450-450c0-248-202-450-450-450z m0 858c-225 0-408-183-408-408 0-225 183-408 408-408 225 0 408 183 408 408 0 225-183 408-408 408z m-429-429c-5 0-11 2-15 6l-96 99c-8 8-8 21 0 29 9 8 22 8 30 0l84-86 99 68c9 7 22 4 29-5 6-10 4-23-6-29l-113-78c-4-3-8-4-12-4z" horiz-adv-x="1000" />

<glyph glyph-name="arrow-cross" unicode="&#xe832;" d="M979 350h-958c-12 0-21 9-21 21s9 21 21 21h958c12 0 21-10 21-21s-9-21-21-21z m-87-112c-4 0-9 1-13 4-9 7-11 20-4 29l78 102-78 101c-7 10-5 23 4 30 9 7 22 5 29-4l88-114c5-8 5-18 0-26l-88-114c-4-5-10-8-16-8z m-784 0c-6 0-12 3-16 8l-88 114c-5 8-5 18 0 25l88 115c7 9 20 10 29 3 9-7 11-20 4-29l-78-101 78-102c7-9 5-22-4-29-4-3-8-4-13-4z m392-367c-11 0-21 9-21 21v916c0 12 10 21 21 21s21-9 21-21v-916c0-12-9-21-21-21z m114 850c-4 0-9 1-12 4l-102 78-101-78c-9-7-23-5-30 4-7 9-5 22 4 29l114 88c8 5 18 5 26 0l114-88c9-7 11-20 4-29-4-5-11-8-17-8z m-114-871c-4 0-9 1-13 4l-114 88c-9 6-11 20-4 29 7 9 21 11 30 4l101-78 102 78c9 7 22 5 29-4 7-9 5-23-4-29l-114-88c-4-3-8-4-13-4z" horiz-adv-x="1000" />

<glyph glyph-name="arrow-back-2" unicode="&#xe833;" d="M604-129c-6 0-12 2-16 7l-375 459c-6 8-6 19 0 26l375 459c6 6 15 9 23 6 9-3 14-11 14-20v-916c0-9-5-17-14-20-2-1-4-1-7-1z m-348 479l327-400v800l-327-400z m515-479c-12 0-21 9-21 21v916c0 12 9 21 21 21 11 0 21-9 21-21v-916c0-12-10-21-21-21z" horiz-adv-x="1000" />

<glyph glyph-name="arrow-back-3" unicode="&#xe834;" d="M875-150h-250c-5 0-10 2-14 5l-500 459c-4 4-7 9-7 15 0 5 2 11 6 15l500 500c4 4 10 6 15 6h250c8 0 16-5 19-13s2-17-4-23l-485-484 484-444c6-6 9-15 5-23-3-8-10-13-19-13z m-242 42h189l-461 422c-4 4-7 9-7 15 0 5 2 11 6 15l465 464h-191l-479-478 478-438z" horiz-adv-x="1000" />

<glyph glyph-name="arrow-back" unicode="&#xe835;" d="M490-129c-8 0-15 4-19 11l-250 458c-3 6-3 14 0 20l250 458c6 10 19 14 29 9 10-6 13-18 8-29l-245-448 245-448c5-11 2-23-8-29-4-1-7-2-10-2z m270 437h-375c-11 0-20 10-20 21 0 12 9 21 20 21h375c12 0 21-9 21-21 0-11-9-21-21-21z" horiz-adv-x="1000" />

<glyph glyph-name="arrow-down-2" unicode="&#xe836;" d="M500 121c-3 0-7 1-10 2l-458 250c-10 6-14 19-9 29 6 10 19 14 29 8l448-245 448 245c11 6 23 2 29-8 5-10 2-23-9-29l-458-250c-3-1-6-2-10-2z m0 167c-3 0-7 0-10 2l-458 250c-10 6-14 18-9 28 6 10 19 14 29 9l448-245 448 245c11 5 23 1 29-9 5-10 2-22-9-28l-458-250c-3-2-6-2-10-2z" horiz-adv-x="1000" />

<glyph glyph-name="arrow-down-3" unicode="&#xe837;" d="M500 58c-5 0-9 2-13 5l-458 375c-7 6-10 15-7 23 3 9 11 14 20 14h916c9 0 17-5 20-14 3-8 0-17-6-23l-459-375c-4-3-8-5-13-5z m-400 375l400-327 400 327h-800z m858 167h-916c-12 0-21 9-21 21s9 21 21 21h916c12 0 21-10 21-21s-9-21-21-21z" horiz-adv-x="1000" />

<glyph glyph-name="arrow-down-in-circle" unicode="&#xe838;" d="M500 225c-4 0-7 1-10 3l-292 166c-10 6-13 19-8 29 6 10 19 13 29 8l281-161 281 161c10 5 23 2 29-8 6-10 2-23-8-29l-292-166c-3-2-6-3-10-3z m0 583c253 0 458-205 458-458 0-253-205-458-458-458s-458 205-458 458c0 253 205 458 458 458m0 42c-276 0-500-224-500-500 0-276 224-500 500-500s500 224 500 500c0 276-224 500-500 500l0 0z" horiz-adv-x="1000" />

<glyph glyph-name="arrow-down" unicode="&#xe839;" d="M500 204c-3 0-7 1-10 3l-458 250c-10 5-14 18-9 28 6 10 19 14 29 8l448-244 448 244c11 6 23 2 29-8 5-10 2-23-9-28l-458-250c-3-2-6-3-10-3z" horiz-adv-x="1000" />

<glyph glyph-name="arrow-forward-2" unicode="&#xe83a;" d="M375-150h-250c-9 0-16 5-19 13-3 8-1 17 5 23l484 444-485 484c-6 6-7 15-4 23 3 8 11 13 19 13h250c6 0 11-2 15-6l500-500c4-4 6-10 6-15 0-6-3-11-7-15l-500-459c-4-3-9-5-14-5z m-196 42h188l478 438-479 478h-191l465-464c4-4 6-9 6-15 0-6-3-11-7-15l-460-422z" horiz-adv-x="1000" />

<glyph glyph-name="arrow-forward" unicode="&#xe83b;" d="M531-129c-3 0-6 1-10 2-10 6-13 18-8 29l245 448-245 448c-5 11-2 23 8 29 10 5 23 1 29-9l250-458c3-6 3-14 0-20l-250-458c-4-7-11-11-19-11z m63 437h-375c-12 0-21 10-21 21 0 12 9 21 21 21h375c11 0 21-9 21-21 0-11-10-21-21-21z" horiz-adv-x="1000" />

<glyph glyph-name="arrow-left-2" unicode="&#xe83c;" d="M542-129c-8 0-15 4-19 11l-250 458c-3 6-3 14 0 20l250 458c6 10 19 14 29 9 10-6 14-18 8-29l-245-448 245-448c6-11 2-23-8-29-3-1-7-2-10-2z m166 0c-7 0-14 4-18 11l-250 458c-3 6-3 14 0 20l250 458c6 10 18 14 28 9 11-6 14-18 9-29l-245-448 245-448c5-11 1-23-9-29-3-1-6-2-10-2z" horiz-adv-x="1000" />

<glyph glyph-name="arrow-left-in-circle" unicode="&#xe83d;" d="M563 38c-8 0-15 3-19 10l-166 292c-4 6-4 14 0 20l166 292c6 10 19 14 29 8 10-6 13-19 8-29l-161-281 161-281c5-10 2-23-8-29-3-2-7-2-10-2z m-63 770c253 0 458-205 458-458 0-253-205-458-458-458-253 0-458 205-458 458 0 253 205 458 458 458m0 42c-276 0-500-224-500-500 0-276 224-500 500-500s500 224 500 500c0 276-224 500-500 500l0 0z" horiz-adv-x="1000" />

<glyph glyph-name="arrow-left" unicode="&#xe83e;" d="M625-129c-7 0-14 4-18 11l-250 458c-4 6-4 14 0 20l250 458c5 10 18 14 28 9 10-6 14-18 8-29l-244-448 244-448c6-11 2-23-8-29-3-1-7-2-10-2z" horiz-adv-x="1000" />

<glyph glyph-name="arrow-next" unicode="&#xe83f;" d="M396-129c-2 0-5 0-7 1-8 3-14 11-14 20v916c0 9 6 17 14 20 8 3 17 0 23-6l375-459c6-7 6-18 0-26l-375-459c-4-5-10-7-16-7z m21 879v-800l327 400-327 400z m-188-879c-11 0-21 9-21 21v916c0 12 10 21 21 21 12 0 21-9 21-21v-916c0-12-9-21-21-21z" horiz-adv-x="1000" />

<glyph glyph-name="arrow-refresh-2" unicode="&#xe840;" d="M500 246c-54 0-98 40-104 94-2 28 6 55 24 76 18 22 42 35 70 38 58 5 108-37 114-94 2-28-6-55-23-76-18-22-43-35-71-38-3 0-7 0-10 0z m0 167c-2 0-4-1-6-1-16-1-31-9-42-22-11-13-16-29-14-46 3-34 34-60 68-56 17 1 32 9 42 22 11 13 16 29 14 46-3 32-29 57-62 57z m455-92c-3 0-6 1-9 3l-73 39-75-35c-11-4-23 0-28 11-5 10 0 22 10 27l85 39c6 3 13 3 18 0l82-44c10-6 14-19 9-29-4-7-11-11-19-11z m-828-28c-4 0-7 1-10 2l-82 44c-10 6-14 19-9 29 6 10 18 14 29 8l73-39 75 35c10 5 22 0 27-10 5-11 1-23-10-28l-84-39c-3-1-6-2-9-2z m373-339c-205 0-374 154-394 358-21 217 139 411 356 432 220 22 411-139 432-356 21-217-138-411-356-432-13-1-26-2-38-2z m1 750c-12 0-24 0-35-1-194-19-337-193-318-387 18-194 189-338 386-319 195 19 338 193 319 387-18 183-170 320-352 320z" horiz-adv-x="1000" />

<glyph glyph-name="arrow-refresh" unicode="&#xe841;" d="M499-49c-11 0-21 9-21 20 0 12 10 21 21 21 194 0 352 161 352 358 0 12 9 21 21 21 11 0 21-9 21-21 0-220-177-399-394-399z m-372 378c-12 0-21 10-21 21 0 220 176 399 393 399 12 0 21-9 21-20 0-12-9-21-21-21-194 0-352-161-352-358 0-11-9-21-20-21z m372-104c-69 0-125 56-125 125 0 69 56 125 125 125 69 0 125-56 125-125 0-69-56-125-125-125z m0 208c-46 0-83-37-83-83 0-46 37-83 83-83 46 0 84 37 84 83 0 46-38 83-84 83z m474-167c-4 0-8 1-11 3l-92 58-102-40c-10-5-22 1-27 11-4 11 1 23 12 27l111 44c6 3 13 2 19-1l101-64c10-6 13-19 6-29-3-6-10-9-17-9z m-846 63c-5 0-9 1-12 4l-99 66c-10 7-12 19-6 29 6 10 19 12 29 6l90-61 103 38c10 4 22-2 26-13 4-11-1-23-12-27l-112-41c-3 0-5-1-7-1z" horiz-adv-x="1000" />

<glyph glyph-name="arrow-right-2" unicode="&#xe842;" d="M458-129c-3 0-6 1-10 2-10 6-13 18-8 29l245 448-245 448c-5 11-2 23 8 29 10 5 23 1 29-9l250-458c3-6 3-14 0-20l-250-458c-4-7-11-11-19-11z m-166 0c-4 0-7 1-10 2-10 6-14 18-9 29l245 448-245 448c-5 10-1 23 9 29 10 5 23 1 28-9l250-458c3-6 3-14 0-20l-250-458c-4-7-11-11-18-11z" horiz-adv-x="1000" />

<glyph glyph-name="arrow-right-in-circle" unicode="&#xe843;" d="M438 38c-4 0-7 0-11 2-10 6-13 19-8 29l161 281-161 281c-5 10-2 23 8 29 10 5 23 2 29-8l166-292c4-6 4-14 0-20l-166-292c-4-7-11-10-18-10z m62 770c253 0 458-205 458-458 0-253-205-458-458-458-253 0-458 205-458 458 0 253 205 458 458 458m0 42c-276 0-500-224-500-500 0-276 224-500 500-500s500 224 500 500c0 276-224 500-500 500l0 0z" horiz-adv-x="1000" />

<glyph glyph-name="arrow-right" unicode="&#xe844;" d="M375-129c-3 0-7 1-10 2-10 6-14 18-8 29l244 448-244 448c-6 11-2 23 8 29 10 5 23 1 28-9l250-458c4-6 4-14 0-20l-250-458c-3-7-11-11-18-11z" horiz-adv-x="1000" />

<glyph glyph-name="arrow-turn-left" unicode="&#xe845;" d="M599 254c-5 0-9 2-13 5l-333 266c-5 4-8 10-8 17s3 12 8 16l333 267c9 7 22 5 29-4 7-9 6-22-3-29l-313-250 313-251c9-7 10-20 3-29-4-5-10-8-16-8z m135-383c-11 0-20 9-20 21v450c0 98-81 179-180 179-11 0-20 9-20 21 0 11 9 20 20 20 122 0 221-99 221-220v-450c0-12-9-21-21-21z" horiz-adv-x="1000" />

<glyph glyph-name="arrow-turn-right" unicode="&#xe846;" d="M427 254c-6 0-12 3-16 8-7 9-6 22 3 29l313 251-313 250c-9 7-10 20-3 29 7 9 20 11 29 4l333-267c5-4 8-10 8-16s-3-13-8-17l-333-266c-4-3-8-5-13-5z m-187-383c-12 0-21 9-21 21v450c0 121 99 221 221 221 11 0 21-10 21-21 0-12-10-21-21-21-99 0-180-81-180-179v-450c0-12-9-21-20-21z" horiz-adv-x="1000" />

<glyph glyph-name="arrow-up-2" unicode="&#xe847;" d="M958 288c-3 0-6 0-10 2l-448 245-448-245c-10-5-23-2-29 8s-1 23 9 29l458 250c6 3 14 3 20 0l458-250c10-6 14-19 9-29-4-7-11-10-19-10z m0-167c-3 0-6 1-10 3l-448 244-448-245c-10-5-23-1-29 9s-1 22 9 28l458 250c6 3 14 3 20 0l458-250c10-6 14-18 9-28-4-7-11-11-19-11z" horiz-adv-x="1000" />

<glyph glyph-name="arrow-up-3" unicode="&#xe848;" d="M959 225c0 0-1 0-1 0h-917c-8 0-16 6-19 14-3 8-1 17 6 23l458 375c8 6 19 6 27 0l455-372c7-4 12-11 12-19 0-12-10-21-21-21z m-859 42h800l-400 327-400-327z m858-209h-917c-11 0-21 10-21 21s10 21 21 21h917c11 0 21-9 21-21s-9-21-21-21z" horiz-adv-x="1000" />

<glyph glyph-name="arrow-up-in-circle" unicode="&#xe849;" d="M792 267c-4 0-7 1-11 2l-281 161-281-160c-10-6-23-3-29 7-6 10-2 23 8 29l292 166c6 4 14 4 20 0l292-166c10-6 13-19 8-29-4-7-11-10-18-10z m-292 541c253 0 458-205 458-458 0-253-205-458-458-458s-458 205-458 458c0 253 205 458 458 458m0 42c-276 0-500-224-500-500 0-276 224-500 500-500s500 224 500 500c0 276-224 500-500 500l0 0z" horiz-adv-x="1000" />

<glyph glyph-name="arrow-up" unicode="&#xe84a;" d="M958 204c-3 0-6 1-10 3l-448 244-448-244c-10-6-23-2-29 8s-1 23 9 28l458 250c6 4 14 4 20 0l458-250c10-5 14-18 9-28-4-7-11-11-19-11z" horiz-adv-x="1000" />

<glyph glyph-name="arrow-x-left" unicode="&#xe84b;" d="M644-150h-613c-11 0-21 9-21 21v958c0 12 10 21 21 21h613c7 0 13-3 17-9l325-479c5-7 5-17 0-24l-325-479c-4-6-10-9-17-9z m-592 42h581l311 458-311 458h-581v-916z m494 267c-6 0-11 2-15 6l-344 344c-9 8-9 22 0 30s21 8 29 0l344-345c8-8 8-21 0-29-4-4-9-6-14-6z m-345 0c-5 0-10 2-14 6-9 8-9 21 0 29l344 345c8 8 21 8 29 0 9-8 9-22 0-30l-344-344c-4-4-9-6-15-6z" horiz-adv-x="1000" />

<glyph glyph-name="arrow-x-right" unicode="&#xe84c;" d="M969-150h-575c-6 0-12 3-16 8l-363 479c-6 8-6 18 0 26l363 479c4 5 10 8 16 8h575c11 0 21-9 21-21v-958c0-12-10-21-21-21z m-564 42h543v916h-543l-348-458 348-458z m88 267c-6 0-11 2-15 6-8 8-8 21 0 29l344 345c8 8 22 8 30 0 8-8 8-22 0-30l-345-344c-4-4-9-6-14-6z m344 0c-5 0-11 2-15 6l-344 344c-8 8-8 22 0 30s21 8 29 0l345-345c8-8 8-21 0-29-4-4-10-6-15-6z" horiz-adv-x="1000" />

<glyph glyph-name="bottom-to-top" unicode="&#xe84d;" d="M762 596c-4 0-9 1-13 4l-249 192-244-192c-9-7-22-6-29 4-7 9-6 22 3 29l257 202c8 6 18 6 26 0l262-202c9-7 11-20 3-29-4-6-10-8-16-8z m-262-715c-11 0-21 9-21 21v917c0 11 10 21 21 21s21-10 21-21v-917c0-12-9-21-21-21z m271-21h-542c-11 0-21 10-21 21s10 21 21 21h542c11 0 21-9 21-21s-10-21-21-21z" horiz-adv-x="1000" />

<glyph glyph-name="down" unicode="&#xe84e;" d="M503-129c-5 0-9 1-13 4l-262 203c-9 7-11 20-4 29 7 9 20 11 29 4l250-193 243 192c9 8 23 6 30-3 7-9 5-22-4-29l-257-203c-3-3-8-4-12-4z m-6 0c-11 0-20 9-20 21v916c0 12 9 21 20 21s21-9 21-21v-916c0-12-9-21-21-21z" horiz-adv-x="1000" />

<glyph glyph-name="down-2" unicode="&#xe84f;" d="M500-150c-6 0-11 2-15 7l-313 333c-3 4-5 9-5 14v625c0 12 9 21 21 21h625c11 0 20-9 20-21v-625c0-5-2-10-5-14l-313-333c-4-5-9-7-15-7z m-292 362l292-311 292 311v596h-584v-596z" horiz-adv-x="1000" />

<glyph glyph-name="down-3" unicode="&#xe850;" d="M500-140c-7 0-14 4-17 10l-187 292c-4 6-4 14-1 21 4 7 11 11 18 11h374c7 0 14-4 18-11 4-7 3-15-1-21l-186-292c-4-6-11-10-18-10z m-148 292l148-232 149 232h-297z m149 21c-12 0-21 9-21 21v625c0 11 9 21 21 21s21-10 21-21v-625c0-12-10-21-21-21z" horiz-adv-x="1000" />

<glyph glyph-name="download" unicode="&#xe851;" d="M875-140h-750c-11 0-21 10-21 21v188c0 11 10 21 21 21s21-10 21-21v-167h708v167c0 11 10 21 21 21s21-10 21-21v-188c0-11-9-21-21-21z m-375 105c-5 0-10 1-14 5l-173 161c-9 8-9 21-2 29 8 9 21 9 30 1l159-147 165 148c8 7 21 7 29-2s7-22-1-29l-179-161c-4-4-9-5-14-5z m0 0c-11 0-21 9-21 20v834c0 11 10 21 21 21s21-10 21-21v-834c0-11-9-20-21-20z" horiz-adv-x="1000" />

<glyph glyph-name="end" unicode="&#xe852;" d="M746 70c-5 0-9 1-13 4-9 7-11 21-4 30l193 243-193 250c-7 9-5 22 4 29 9 7 22 5 29-4l202-262c6-7 6-18 0-26l-202-256c-4-5-10-8-16-8z m202 259h-917c-11 0-21 10-21 21s10 21 21 21h917c11 0 21-9 21-21s-10-21-21-21z m21-271c-12 0-21 10-21 21v542c0 11 9 21 21 21s21-10 21-21v-542c0-11-10-21-21-21z" horiz-adv-x="1000" />

<glyph glyph-name="fit-to-2" unicode="&#xe853;" d="M958-127c-5 0-10 2-14 6l-290 290c-8 8-8 21 0 29 8 8 21 8 29 0l290-290c8-8 8-21 0-29-4-4-9-6-15-6z m-625 625c-5 0-10 2-14 6l-290 290c-8 8-8 21 0 29s21 8 29 0l290-290c8-8 8-21 0-29-4-4-9-6-15-6z m646-648h-187c-12 0-21 9-21 21s9 21 21 21h166v166c0 12 10 21 21 21s21-9 21-21v-187c0-12-9-21-21-21z m-958 771c-12 0-21 9-21 21v187c0 12 9 21 21 21h187c12 0 21-9 21-21s-9-21-21-21h-166v-166c0-12-10-21-21-21z" horiz-adv-x="1000" />

<glyph glyph-name="fit-to" unicode="&#xe854;" d="M43-127c-5 0-10 2-14 6-8 8-8 21 0 29l290 290c8 8 21 8 29 0 8-8 8-21 0-29l-290-290c-4-4-9-6-15-6z m625 625c-5 0-10 2-14 6-8 8-8 21 0 29l290 290c8 8 21 8 29 0 8-8 8-21 0-29l-290-290c-4-4-9-6-15-6z m311 123c-11 0-21 9-21 21v166h-166c-12 0-21 10-21 21s9 21 21 21h187c12 0 21-9 21-21v-187c0-12-9-21-21-21z m-771-771h-187c-12 0-21 9-21 21v187c0 12 9 21 21 21s21-9 21-21v-166h166c12 0 21-10 21-21s-9-21-21-21z" horiz-adv-x="1000" />

<glyph glyph-name="full-screen-2" unicode="&#xe855;" d="M43-127c-5 0-10 2-14 6-8 8-8 21 0 29l290 290c8 8 21 8 29 0 8-8 8-21 0-29l-290-290c-4-4-9-6-15-6z m625 625c-5 0-10 2-14 6-8 8-8 21 0 29l290 290c8 8 21 8 29 0 8-8 8-21 0-29l-290-290c-4-4-9-6-15-6z m290-625c-5 0-10 2-14 6l-290 290c-8 8-8 21 0 29 8 8 21 8 29 0l290-290c8-8 8-21 0-29-4-4-9-6-15-6z m-625 625c-5 0-10 2-14 6l-290 290c-8 8-8 21 0 29s21 8 29 0l290-290c8-8 8-21 0-29-4-4-9-6-15-6z m646 123c-11 0-21 9-21 21v166h-166c-12 0-21 10-21 21s9 21 21 21h187c12 0 21-9 21-21v-187c0-12-9-21-21-21z m0-771h-187c-12 0-21 9-21 21s9 21 21 21h166v166c0 12 10 21 21 21s21-9 21-21v-187c0-12-9-21-21-21z m-958 771c-12 0-21 9-21 21v187c0 12 9 21 21 21h187c12 0 21-9 21-21s-9-21-21-21h-166v-166c0-12-10-21-21-21z m187-771h-187c-12 0-21 9-21 21v187c0 12 9 21 21 21s21-9 21-21v-166h166c12 0 21-10 21-21s-9-21-21-21z" horiz-adv-x="1000" />

<glyph glyph-name="full-screen" unicode="&#xe856;" d="M484-134c-5 0-10 1-14 5l-140 132c-9 8-9 21-1 29 7 9 21 9 29 1l127-119 145 120c9 7 22 6 29-3 7-9 6-22-3-29l-158-132c-4-3-9-4-14-4z m0 10c-11 0-20 9-20 21v292c0 11 9 20 20 20s21-9 21-20v-292c0-12-9-21-21-21z m159 785c-5 0-9 2-13 5l-145 120-127-119c-8-8-22-7-29 1s-8 22 1 29l140 132c8 7 20 7 28 1l158-132c9-7 10-20 3-29-4-5-10-8-16-8z m-159-160c-11 0-20 9-20 21v292c0 11 9 20 20 20s21-9 21-20v-292c0-12-9-21-21-21z m-316-328c-6 0-11 2-15 7l-132 140c-7 8-7 21 0 29l132 140c8 9 21 9 29 1 9-7 9-21 1-29l-118-127 118-126c8-8 8-22-1-29-4-4-9-6-14-6z m171 141h-292c-12 0-21 9-21 20 0 12 9 21 21 21h292c11 0 20-9 20-21 0-11-9-20-20-20z m493-141c-5 0-10 2-14 6-8 7-9 21-1 29l118 126-118 127c-8 8-7 22 1 29 8 8 22 8 29-1l132-140c7-8 7-21 0-29l-132-140c-4-5-9-7-15-7z m132 141h-292c-12 0-21 9-21 20 0 12 9 21 21 21h292c11 0 20-9 20-21 0-11-9-20-20-20z" horiz-adv-x="1000" />

<glyph glyph-name="go-bottom" unicode="&#xe857;" d="M500-98c-4 0-9 1-13 4l-257 203c-9 7-10 20-3 29 7 9 20 11 29 4l244-193 249 193c9 7 22 5 29-4 7-9 6-22-3-29l-262-203c-4-3-8-4-13-4z m0-21c-11 0-21 9-21 21v917c0 11 10 21 21 21s21-10 21-21v-917c0-12-9-21-21-21z m271-21h-542c-11 0-21 10-21 21s10 21 21 21h542c11 0 21-9 21-21s-10-21-21-21z" horiz-adv-x="1000" />

<glyph glyph-name="go-top" unicode="&#xe858;" d="M762 575c-4 0-9 1-13 4l-249 193-244-193c-9-7-22-5-29 4-7 9-6 22 3 29l257 202c8 6 18 6 26 0l262-202c9-7 11-20 3-29-4-5-10-8-16-8z m-262-715c-11 0-21 10-21 21v917c0 12 10 21 21 21s21-9 21-21v-917c0-11-9-21-21-21z m271 938h-542c-11 0-21 9-21 21s10 21 21 21h542c11 0 21-10 21-21s-10-21-21-21z" horiz-adv-x="1000" />

<glyph glyph-name="left---right-3" unicode="&#xe859;" d="M688 143c-4 0-7 0-10 2-7 4-11 11-11 18v374c0 7 4 14 11 18 6 4 14 3 21-1l291-186c6-4 10-11 10-18s-4-14-10-17l-291-187c-4-2-8-3-11-3z m20 356v-298l233 149-233 149z m-395-356c-4 0-8 1-12 3l-291 187c-6 3-10 10-10 17s4 14 10 18l291 186c7 4 15 5 22 1 6-4 10-11 10-18v-374c0-7-4-14-10-18-4-2-7-2-10-2z m-253 207l232-148v297l-232-149z m607-21h-334c-11 0-20 10-20 21s9 21 20 21h334c11 0 21-9 21-21s-10-21-21-21z" horiz-adv-x="1000" />

<glyph glyph-name="left---right" unicode="&#xe85a;" d="M792 100c-5 0-9 1-12 4-10 7-12 20-5 29l158 217-158 217c-7 9-5 22 5 29 9 7 22 5 29-5l166-229c6-7 6-17 0-24l-166-229c-4-6-11-9-17-9z m-584 0c-6 0-12 3-16 9l-167 229c-5 7-5 17 0 24l167 229c6 10 19 12 29 5 9-7 11-20 4-29l-158-217 158-217c7-9 5-22-4-29-4-3-8-4-13-4z m750 229h-916c-12 0-21 10-21 21s9 21 21 21h916c12 0 21-9 21-21s-9-21-21-21z" horiz-adv-x="1000" />

<glyph glyph-name="left" unicode="&#xe85b;" d="M208 100c-6 0-12 3-16 9l-167 229c-5 7-5 17 0 24l167 229c6 10 19 12 29 5 9-7 11-20 4-29l-158-217 158-217c7-9 5-22-4-29-4-3-8-4-13-4z m750 229h-916c-12 0-21 10-21 21s9 21 21 21h916c12 0 21-9 21-21s-9-21-21-21z" horiz-adv-x="1000" />

<glyph glyph-name="left-2" unicode="&#xe85c;" d="M979 17h-625c-5 0-10 2-14 5l-333 313c-5 4-7 9-7 15 0 6 2 11 7 15l333 313c4 3 9 5 14 5h625c12 0 21-9 21-20v-625c0-12-9-21-21-21z m-617 41h596v584h-596l-311-292 311-292z" horiz-adv-x="1000" />

<glyph glyph-name="left-3" unicode="&#xe85d;" d="M323 143c-4 0-8 1-11 3l-292 187c-6 3-10 10-10 17s4 14 10 18l292 186c6 4 14 5 21 1 7-4 11-11 11-18v-374c0-7-4-14-11-18-3-2-7-2-10-2z m-253 207l232-149v298l-232-149z m899-10h-625c-12 0-21 9-21 20s9 21 21 21h625c11 0 21-9 21-21s-10-20-21-20z" horiz-adv-x="1000" />

<glyph glyph-name="left-to-right" unicode="&#xe85e;" d="M766 70c-4 0-9 1-12 4-10 7-11 21-4 30l192 243-192 250c-7 9-5 22 4 29 9 7 22 5 29-4l202-262c6-7 6-18 0-26l-202-256c-4-5-10-8-17-8z m203 259h-917c-11 0-21 10-21 21s10 21 21 21h917c11 0 21-9 21-21s-10-21-21-21z m-938-271c-11 0-21 10-21 21v542c0 11 10 21 21 21s21-10 21-21v-542c0-11-9-21-21-21z" horiz-adv-x="1000" />

<glyph glyph-name="loop" unicode="&#xe85f;" d="M802 163h-604c-103 0-188 84-188 187 0 103 85 188 188 188h604c103 0 188-85 188-188 0-103-85-187-188-187z m-604 333c-80 0-146-66-146-146 0-80 66-146 146-146h604c81 0 146 66 146 146 0 80-65 146-146 146h-604z m219-439c-7 0-13 2-17 8l-81 106c-6 7-6 18 0 25l81 106c7 9 20 11 29 4 10-7 11-20 4-29l-72-94 72-93c7-9 6-22-4-29-3-3-8-4-12-4z m210 333c-5 0-9 1-13 4-9 7-11 20-4 30l72 93-72 93c-7 9-5 22 4 29 9 7 22 5 29-4l82-106c6-7 6-18 0-25l-82-106c-4-5-10-8-16-8z" horiz-adv-x="1000" />

<glyph glyph-name="navigate-end" unicode="&#xe860;" d="M500 298c-3 0-7 1-10 3l-458 250c-10 5-14 18-9 28 6 10 19 14 29 8l448-244 448 244c10 6 23 2 29-8 5-10 2-23-9-28l-458-250c-3-2-6-3-10-3z m458-188h-916c-12 0-21 10-21 21 0 12 9 21 21 21h916c12 0 21-9 21-21 0-11-9-21-21-21z" horiz-adv-x="1000" />

<glyph glyph-name="navigat-start" unicode="&#xe861;" d="M958 131c-3 0-6 1-10 3l-448 244-448-244c-10-6-23-2-29 8s-1 23 9 28l458 250c6 4 14 4 20 0l458-250c10-5 14-18 9-28-4-7-11-11-19-11z m0 396h-916c-12 0-21 9-21 21s9 21 21 21h916c12 0 21-10 21-21s-9-21-21-21z" horiz-adv-x="1000" />

<glyph glyph-name="reload" unicode="&#xe862;" d="M502-32c-196 0-360 148-380 343-10 102 20 201 84 280 65 79 156 128 258 139 213 22 398-133 419-341 11-102-19-201-84-280-64-79-156-129-257-139-14-1-27-2-40-2z m1 722c-11 0-23 0-35-2-90-9-172-53-229-123-58-71-85-159-75-249 19-186 184-324 373-304 91 9 173 53 230 123 58 71 84 159 75 250-18 174-164 305-339 305z m-356-437c-3 0-7 1-10 2l-126 71c-10 6-14 19-8 29 5 10 18 13 28 8l114-65 104 81c9 7 22 5 29-4 7-9 5-22-4-29l-114-89c-4-3-8-4-13-4z m591 72c-7 0-13 3-17 9-7 10-4 23 6 29l120 81c7 5 16 5 23 0l121-80c9-6 12-19 6-29-7-9-20-12-29-6l-109 73-109-73c-4-3-8-4-12-4z" horiz-adv-x="1000" />

<glyph glyph-name="reload-2" unicode="&#xe863;" d="M498-32l0 0c-13 0-26 1-39 2-102 10-194 60-258 139-65 79-95 178-84 280 21 208 206 363 419 341 102-11 193-60 258-139 64-79 94-178 84-280-20-195-184-343-380-343z m-1 722c-175 0-321-131-339-305-9-91 18-179 75-250 58-70 139-114 230-123 190-20 354 118 373 304 10 90-17 178-74 249s-139 114-230 123c-12 2-23 2-35 2z m356-437c-4 0-9 1-13 4l-114 89c-9 7-11 20-4 29 7 9 20 11 30 4l103-81 114 65c10 5 23 2 28-8 6-10 2-23-8-29l-126-71c-3-1-6-2-10-2z m-591 72c-4 0-8 1-12 4l-108 73-110-73c-9-6-22-3-28 6-7 10-4 23 5 29l121 80c7 5 16 5 23 0l121-81c9-6 12-19 5-29-4-6-10-9-17-9z" horiz-adv-x="1000" />

<glyph glyph-name="repeat" unicode="&#xe864;" d="M792 350c-5 0-9 1-12 4-10 7-12 20-5 29l158 217-158 217c-7 9-5 22 5 29 9 7 22 5 29-5l166-229c6-7 6-17 0-24l-166-229c-4-6-11-9-17-9z m-771-83c-12 0-21 9-21 21v83c0 138 112 250 250 250h708c12 0 21-9 21-21s-9-21-21-21h-708c-115 0-208-93-208-208v-83c0-12-10-21-21-21z m167-417c-7 0-13 3-17 8l-167 230c-5 7-5 17 0 24l167 229c6 10 19 12 29 5 9-7 11-20 4-29l-157-217 157-217c7-9 5-22-4-29-4-3-8-4-12-4z m583 229h-729c-12 0-21 10-21 21s9 21 21 21h729c109 0 187 87 187 208v84c0 11 10 20 21 20 12 0 21-9 21-20v-84c0-145-96-250-229-250z" horiz-adv-x="1000" />

<glyph glyph-name="repeat-2" unicode="&#xe865;" d="M500-104c-117 0-234 44-324 133-8 8-8 21 0 29 8 8 22 8 30 0 162-161 426-161 588 0 105 104 146 257 108 399-3 11 4 22 15 25 11 3 22-3 25-14 42-157-3-325-118-439-90-89-207-133-324-133z m-422 321c-9 0-18 6-20 15-42 157 3 325 118 440 179 177 469 177 648 0 8-9 8-22 0-30-8-8-22-8-30 0-162 161-426 161-588 0-105-104-146-257-108-399 3-11-3-22-15-25-1-1-3-1-5-1z m92-367c-1 0-2 0-3 0-11 2-19 12-18 23l21 173c1 8 7 15 16 18l168 46c11 3 23-3 26-14 3-11-4-23-15-26l-155-43-19-159c-2-10-11-18-21-18z m470 739c-9 0-17 6-20 15-3 11 4 23 15 26l155 43 20 159c1 11 11 19 23 18 11-2 19-12 18-23l-21-173c-1-8-7-15-15-17l-169-47c-2-1-4-1-6-1z" horiz-adv-x="1000" />

<glyph glyph-name="repeat-3" unicode="&#xe866;" d="M500-104c-117 0-234 44-324 133-115 114-160 282-118 439 3 11 14 18 25 15 11-3 18-15 15-26-38-142 3-295 108-399 162-161 426-161 588 0 8 8 22 8 30 0s8-21 0-29c-90-89-207-133-324-133z m422 321c-2 0-3 0-5 1-11 3-18 14-15 25 38 142-3 295-108 399-162 161-426 161-588 0-8-8-22-8-30 0-8 8-8 21 0 30 179 177 469 177 648 0 115-115 160-283 118-440-2-9-11-15-20-15z m-92-367c-10 0-19 8-20 18l-20 159-155 43c-11 3-18 15-15 26 3 11 15 17 26 14l169-47c8-2 14-9 15-17l21-173c1-11-7-21-18-23-1 0-2 0-3 0z m-470 739c-2 0-4 0-6 1l-168 47c-9 2-15 9-16 17l-21 173c-1 11 7 21 18 23 12 1 22-7 24-18l19-159 155-43c11-3 18-15 15-26-3-9-11-15-20-15z" horiz-adv-x="1000" />

<glyph glyph-name="repeat-4" unicode="&#xe867;" d="M787 374c-5 0-9 1-13 5-9 7-10 21-3 29l113 131-113 130c-7 8-6 22 3 29 8 8 21 7 29-2l124-144c7-8 7-19 0-27l-124-144c-4-5-10-7-16-7z m-730-44c-11 0-20 9-20 21 0 115 93 208 208 208h667c11 0 20-9 20-20s-9-21-20-21h-667c-92 0-167-75-167-167 0-11-9-21-21-21z m125-333c-6 0-12 2-16 7l-124 144c-7 8-7 19 0 27l124 144c7 9 21 10 29 2 9-7 10-21 2-29l-112-130 112-131c8-8 7-22-2-29-4-4-8-5-13-5z m584 146h-688c-11 0-21 9-21 21s10 20 21 20h688c89 0 156 72 156 167 0 12 9 21 21 21s21-9 21-21c0-119-85-208-198-208z" horiz-adv-x="1000" />

<glyph glyph-name="right" unicode="&#xe868;" d="M792 100c-5 0-9 1-12 4-10 7-12 20-5 29l158 217-158 217c-7 9-5 22 5 29 9 7 22 5 29-5l166-229c6-7 6-17 0-24l-166-229c-4-6-11-9-17-9z m166 229h-916c-12 0-21 10-21 21s9 21 21 21h916c12 0 21-9 21-21s-9-21-21-21z" horiz-adv-x="1000" />

<glyph glyph-name="right-2" unicode="&#xe869;" d="M646 17h-625c-12 0-21 9-21 21v625c0 11 9 20 21 20h625c5 0 10-2 14-5l333-313c5-4 7-9 7-15 0-6-2-11-7-15l-333-313c-4-3-9-5-14-5z m-604 41h596l311 292-311 292h-596v-584z" horiz-adv-x="1000" />

<glyph glyph-name="right-3" unicode="&#xe86a;" d="M677 143c-3 0-7 0-10 2-7 4-11 11-11 18v374c0 7 4 14 11 18 7 4 15 3 21-1l292-186c6-4 10-11 10-18s-4-14-10-17l-292-187c-3-2-7-3-11-3z m21 356v-298l232 149-232 149z m-42-180h-625c-11 0-21 9-21 21s10 20 21 20h625c12 0 21-9 21-20s-9-21-21-21z" horiz-adv-x="1000" />

<glyph glyph-name="right-to-left" unicode="&#xe86b;" d="M234 70c-6 0-13 3-17 8l-202 256c-6 8-6 19 0 26l202 262c7 9 20 11 29 4 9-7 11-20 4-29l-192-250 192-243c7-9 6-23-3-30-4-3-9-4-13-4z m714 259h-917c-11 0-20 10-20 21s9 21 20 21h917c11 0 21-9 21-21s-10-21-21-21z m21-271c-12 0-21 10-21 21v542c0 11 9 21 21 21s21-10 21-21v-542c0-11-10-21-21-21z" horiz-adv-x="1000" />

<glyph glyph-name="shuffle" unicode="&#xe86c;" d="M834 477c-5 0-10 2-14 5-8 8-9 21-2 30l113 130-113 130c-7 9-6 22 2 29 9 8 22 7 30-2l124-144c7-7 7-19 0-27l-124-144c-4-5-10-7-16-7z m0-583c-5 0-10 1-14 5-8 7-9 20-2 29l113 130-113 131c-7 8-6 21 2 29 9 8 22 7 30-2l124-144c7-8 7-19 0-27l-124-144c-4-5-10-7-16-7z m124 144h-83c-146 0-291 146-431 287-135 135-273 275-402 275-12 0-21 9-21 21s9 21 21 21c146 0 291-146 431-288 134-135 273-275 402-275h83c12 0 21-9 21-21s-9-20-21-20z m-916 0c-12 0-21 9-21 20s9 21 21 21c129 0 267 145 401 285 141 147 285 299 432 299h83c12 0 21-10 21-21s-9-21-21-21h-83c-129 0-267-145-402-285-140-147-285-298-431-298z" horiz-adv-x="1000" />

<glyph glyph-name="shuffle-2" unicode="&#xe86d;" d="M834 477c-5 0-10 2-14 5-8 8-9 21-2 30l113 130-113 130c-7 9-6 22 2 29 9 8 22 7 30-2l124-144c7-7 7-19 0-27l-124-144c-4-5-10-7-16-7z m0-583c-5 0-10 1-14 5-8 7-9 20-2 29l113 130-113 131c-7 8-6 21 2 29 9 8 22 7 30-2l124-144c7-8 7-19 0-27l-124-144c-4-5-10-7-16-7z m124 144h-83c-146 0-291 146-431 287-135 135-273 275-402 275-12 0-21 9-21 21s9 21 21 21c146 0 291-146 431-288 134-135 273-275 402-275h83c12 0 21-9 21-21s-9-20-21-20z m-448 345c-5 0-10 2-15 6-8 8-8 21 0 29 120 124 248 245 380 245h83c12 0 21-10 21-21s-9-21-21-21h-83c-115 0-236-115-350-232-4-4-9-6-15-6z m-468-345c-12 0-21 9-21 20s9 21 21 21c106 0 218 99 324 205 7 8 21 8 29 0 8-8 8-21 0-29-112-113-232-217-353-217z" horiz-adv-x="1000" />

<glyph glyph-name="start" unicode="&#xe86e;" d="M255 70c-7 0-13 3-17 8l-202 256c-6 8-6 19 0 26l202 262c7 9 20 11 29 4 9-7 11-20 4-29l-192-250 192-243c7-9 5-23-4-30-3-3-8-4-12-4z m714 259h-917c-11 0-21 10-21 21s10 21 21 21h917c11 0 21-9 21-21s-10-21-21-21z m-938-271c-11 0-21 10-21 21v542c0 11 10 21 21 21s21-10 21-21v-542c0-11-9-21-21-21z" horiz-adv-x="1000" />

<glyph glyph-name="sync" unicode="&#xe86f;" d="M958 163h-916c-12 0-21 9-21 20s9 21 21 21h916c12 0 21-9 21-21s-9-20-21-20z m0 333h-916c-12 0-21 9-21 21s9 21 21 21h916c12 0 21-10 21-21s-9-21-21-21z m-833-439c-6 0-12 2-16 8l-82 106c-6 7-6 18 0 25l82 106c7 9 20 11 29 4 9-7 11-20 4-29l-72-94 72-93c7-9 5-22-4-29-4-3-9-4-13-4z m752 333c-5 0-9 1-13 4-9 7-11 20-4 30l72 93-72 93c-7 9-5 22 4 29 9 7 22 5 29-4l82-106c6-7 6-18 0-25l-82-106c-4-5-10-8-16-8z" horiz-adv-x="1000" />

<glyph glyph-name="to-bottom-2" unicode="&#xe870;" d="M479-129c-4 0-8 1-12 4l-229 167c-10 6-12 19-5 29 7 9 20 11 29 4l217-158 217 158c9 7 22 5 29-4 7-10 5-23-4-29l-230-167c-3-3-7-4-12-4z m0 21c-11 0-21 9-21 20v688c0 137 92 229 230 229h62c12 0 21-9 21-21s-9-20-21-20h-62c-116 0-188-72-188-188v-688c0-11-9-20-21-20z" horiz-adv-x="1000" />

<glyph glyph-name="to-bottom" unicode="&#xe871;" d="M521-129c-4 0-9 1-12 4l-230 167c-9 6-11 19-4 29 7 9 20 11 29 4l217-158 217 158c9 7 22 5 29-4 7-10 5-23-5-29l-229-167c-4-3-8-4-12-4z m0 21c-12 0-21 9-21 20v688c0 116-72 188-187 188h-63c-11 0-21 9-21 20s10 21 21 21h63c137 0 229-92 229-229v-688c0-11-10-20-21-20z" horiz-adv-x="1000" />

<glyph glyph-name="to-left" unicode="&#xe872;" d="M188 142c-7 0-13 3-17 8l-167 230c-5 7-5 17 0 24l167 229c6 9 19 12 29 5 9-7 11-20 4-29l-157-217 157-217c7-10 5-23-4-29-4-3-8-4-12-4z m791-84c-11 0-21 10-21 21v84c0 120-78 208-187 208h-729c-12 0-21 9-21 21s9 21 21 21h729c133 0 229-106 229-250v-84c0-11-9-21-21-21z" horiz-adv-x="1000" />

<glyph glyph-name="top-to-bottom" unicode="&#xe873;" d="M500-150c-4 0-9 1-13 4l-257 203c-9 7-10 20-3 29 7 9 20 11 29 4l244-193 249 193c9 7 22 5 29-4s6-22-3-29l-262-203c-4-3-8-4-13-4z m0 21c-11 0-21 9-21 21v916c0 12 10 21 21 21s21-9 21-21v-916c0-12-9-21-21-21z m271 937h-542c-11 0-21 10-21 21s10 21 21 21h542c11 0 21-9 21-21s-10-21-21-21z" horiz-adv-x="1000" />

<glyph glyph-name="to-right" unicode="&#xe874;" d="M802 142c-4 0-8 1-12 4-9 6-11 20-5 29l158 217-158 217c-6 9-4 22 5 29 9 7 22 4 29-5l167-229c5-7 5-17 0-24l-167-230c-4-5-10-8-17-8z m-771-84c-11 0-21 10-21 21v84c0 137 113 250 250 250h709c11 0 21-10 21-21s-10-21-21-21h-709c-114 0-208-94-208-208v-84c0-11-9-21-21-21z" horiz-adv-x="1000" />

<glyph glyph-name="to-top-2" unicode="&#xe875;" d="M708 631c-4 0-8 2-12 4l-217 158-217-158c-9-6-22-4-29 5-7 9-4 22 5 29l229 167c7 5 17 5 25 0l229-167c9-7 11-20 4-29-4-6-10-9-17-9z m42-771h-62c-133 0-230 105-230 250v709c0 11 10 21 21 21s21-10 21-21v-709c0-120 79-208 188-208h62c12 0 21-9 21-21s-9-21-21-21z" horiz-adv-x="1000" />

<glyph glyph-name="to-top" unicode="&#xe876;" d="M750 631c-4 0-8 2-12 4l-217 158-217-158c-9-6-22-4-29 5-7 9-5 22 4 29l230 167c7 5 17 5 24 0l229-167c10-7 12-20 5-29-4-6-11-9-17-9z m-437-771h-63c-11 0-21 10-21 21s10 21 21 21h63c108 0 187 88 187 208v709c0 11 9 21 21 21s21-10 21-21v-709c0-145-97-250-229-250z" horiz-adv-x="1000" />

<glyph glyph-name="triangle-arrow-down" unicode="&#xe877;" d="M500-140c-5 0-9 2-13 5l-458 375c-7 6-10 15-7 23 3 9 11 14 20 14h916c9 0 17-5 20-14 3-8 0-17-6-23l-459-375c-4-3-8-5-13-5z m-400 375l400-327 400 327h-800z m379 21c-11 0-21 10-21 21v542c0 11 10 21 21 21 12 0 21-10 21-21v-542c0-11-9-21-21-21z" horiz-adv-x="1000" />

<glyph glyph-name="triangle-arrow-left" unicode="&#xe878;" d="M406-129c-6 0-12 2-16 7l-375 459c-6 8-6 19 0 26l375 459c6 6 15 9 23 6 9-3 14-11 14-20v-916c0-9-5-17-14-20-2-1-4-1-7-1z m-348 479l327-400v800l-327-400z m911-42h-542c-11 0-21 10-21 21 0 12 10 21 21 21h542c11 0 21-9 21-21 0-11-10-21-21-21z" horiz-adv-x="1000" />

<glyph glyph-name="triangle-arrow-right" unicode="&#xe879;" d="M573-129c-2 0-5 0-7 1-8 3-14 11-14 20v916c0 9 6 17 14 20 8 3 18 0 23-6l375-459c6-7 6-18 0-26l-375-459c-4-5-10-7-16-7z m21 879v-800l327 400-327 400z m-42-442h-500c-11 0-21 10-21 21 0 12 10 21 21 21h500c12 0 21-9 21-21 0-11-9-21-21-21z" horiz-adv-x="1000" />

<glyph glyph-name="triangle-arrow-up" unicode="&#xe87a;" d="M959 402c0 0-1 0-1 0h-917c-8 0-16 6-19 14-3 8-1 17 6 23l458 375c8 6 19 6 27 0l455-372c7-4 12-11 12-19 0-12-10-21-21-21z m-859 42h800l-400 327-400-327z m379-563c-12 0-21 9-21 21v500c0 12 9 21 21 21 11 0 21-9 21-21v-500c0-12-10-21-21-21z" horiz-adv-x="1000" />

<glyph glyph-name="turn-down-2" unicode="&#xe87b;" d="M292 90c-5 0-9 1-13 4l-229 166c-9 7-11 20-4 29 6 10 20 12 29 5l217-158 217 158c9 7 22 5 29-5 7-9 4-22-5-29l-229-166c-4-3-8-4-12-4z m0 0c-12 0-21 9-21 20v271c0 137 92 229 229 229h438c11 0 20-9 20-20s-9-21-20-21h-438c-116 0-187-72-187-188v-271c0-11-10-20-21-20z" horiz-adv-x="1000" />

<glyph glyph-name="turn-down-from-left" unicode="&#xe87c;" d="M790-4c0 0 0 0 0 0-8 0-14 4-18 10l-177 292c-4 6-4 14 0 21 4 6 11 10 18 10h362c8 0 15-4 19-11 3-7 3-15-2-22l-185-291c-3-6-10-9-17-9z m-140 292l142-233 144 233h-286z m142 20c-12 0-21 10-21 21v107c0 109-57 227-176 227h-576c-12 0-21 9-21 20s9 21 21 21h576c148 0 218-139 218-268v-107c0-11-10-21-21-21z" horiz-adv-x="1000" />

<glyph glyph-name="turn-down-from-right" unicode="&#xe87d;" d="M200-4c0 0 0 0 0 0-7 0-14 4-18 10l-171 292c-4 6-4 14 0 21 4 6 10 10 18 10h373c8 0 15-4 19-11 3-7 3-15-2-22l-202-291c-3-6-10-9-17-9z m-135 292l137-233 160 233h-297z m135 20c-11 0-20 10-20 21v107c0 148 106 268 236 268h555c12 0 21-9 21-21s-9-20-21-20h-555c-120 0-195-118-195-227v-107c0-11-9-21-21-21z" horiz-adv-x="1000" />

<glyph glyph-name="turn-down" unicode="&#xe87e;" d="M708 90c-4 0-8 1-12 4l-229 166c-9 7-11 20-5 29 7 10 20 12 29 5l217-158 217 158c10 7 23 5 29-5 7-9 5-22-4-29l-229-166c-4-3-8-4-13-4z m0 0c-11 0-20 9-20 20v271c0 116-72 188-188 188h-437c-12 0-21 9-21 21s9 20 21 20h437c137 0 229-92 229-229v-271c0-11-9-20-21-20z" horiz-adv-x="1000" />

<glyph glyph-name="turn-left-3" unicode="&#xe87f;" d="M458 336c-4 0-7 1-11 3l-292 187c-6 3-9 10-9 17s4 14 9 18l292 186c7 5 15 5 21 1 7-4 11-11 11-18v-373c0-8-4-15-11-19-3-1-6-2-10-2z m-253 207l233-148v297l-233-149z m628-594c-11 0-20 10-20 21v331c0 116-95 211-211 211h-123c-11 0-21 9-21 21s10 21 21 21h123c139 0 252-114 252-253v-331c0-11-9-21-21-21z" horiz-adv-x="1000" />

<glyph glyph-name="turn-left" unicode="&#xe880;" d="M417 329c-7 0-13 3-17 9l-167 229c-5 7-5 17 0 24l167 230c7 9 20 11 29 4 9-7 11-20 5-29l-158-217 158-217c6-9 4-22-5-29-4-2-8-4-12-4z m333-458c-11 0-21 9-21 21v458c0 121-79 208-187 208h-271c-12 0-21 10-21 21s9 21 21 21h271c133 0 229-105 229-250v-458c0-12-9-21-21-21z" horiz-adv-x="1000" />

<glyph glyph-name="turn-right-3" unicode="&#xe881;" d="M542 336c-4 0-7 1-10 2-7 4-11 11-11 19v373c0 7 4 14 11 18 6 4 15 4 21-1l292-186c6-4 9-11 9-18s-3-14-9-17l-292-187c-3-2-7-3-11-3z m21 356v-297l232 148-232 149z m-396-743c-12 0-21 10-21 21v331c0 139 113 253 253 253h122c11 0 21-10 21-21s-10-21-21-21h-123c-116 0-210-95-210-211v-331c0-11-10-21-21-21z" horiz-adv-x="1000" />

<glyph glyph-name="turn-right" unicode="&#xe882;" d="M573 329c-4 0-9 1-12 4-10 7-12 20-5 29l158 217-158 217c-7 9-5 22 5 29 9 7 22 5 29-4l166-230c6-7 6-17 0-24l-166-229c-4-6-11-9-17-9z m-313-458c-11 0-20 9-20 21v458c0 138 112 250 250 250h250c11 0 20-9 20-21s-9-21-20-21h-250c-115 0-209-93-209-208v-458c0-12-9-21-21-21z" horiz-adv-x="1000" />

<glyph glyph-name="turn-up-2" unicode="&#xe883;" d="M521 402c-4 0-9 1-12 4l-217 158-217-158c-10-7-23-5-29 5-7 9-5 22 4 29l229 166c8 6 18 6 25 0l229-166c9-7 11-20 5-29-4-6-11-9-17-9z m417-312h-438c-133 0-229 105-229 250v250c0 11 9 20 21 20s21-9 21-20v-250c0-121 78-209 187-209h438c11 0 20-9 20-21s-9-20-20-20z" horiz-adv-x="1000" />

<glyph glyph-name="turn-up" unicode="&#xe884;" d="M938 402c-5 0-9 1-13 4l-217 158-217-158c-9-7-22-5-29 5-6 9-4 22 5 29l229 166c7 6 17 6 25 0l229-166c9-7 11-20 4-29-4-6-10-9-16-9z m-438-312h-437c-12 0-21 9-21 20s9 21 21 21h437c109 0 188 88 188 209v250c0 11 9 20 20 20 12 0 21-9 21-20v-250c0-145-96-250-229-250z" horiz-adv-x="1000" />

<glyph glyph-name="up---down-3" unicode="&#xe885;" d="M668 517c0 0-1 0-1 0h-335c-7 0-14 4-18 11s-3 14 0 20l168 292c7 13 28 13 36 0l165-287c3-4 6-9 6-15 0-12-10-21-21-21z m-300 42h263l-131 229-132-229z m132-709c-8 0-15 4-18 11l-168 292c-3 6-3 14 0 20s11 11 18 11h335c7 0 14-4 18-11 4-6 4-14 0-20l-167-292c-4-7-11-11-18-11z m-132 292l132-229 131 229h-263z m131 21c-11 0-21 9-21 21v333c0 12 10 21 21 21 12 0 21-9 21-21v-333c0-12-9-21-21-21z" horiz-adv-x="1000" />

<glyph glyph-name="up---down" unicode="&#xe886;" d="M503-147c-5 0-9 1-13 4l-262 203c-9 7-11 20-4 29 7 9 20 11 29 4l250-193 243 193c9 7 22 5 30-4 7-9 5-22-4-29l-256-203c-4-3-9-4-13-4z m-262 750c-6 0-13 3-17 8-7 9-5 22 4 29l262 203c7 6 18 6 26 0l256-203c9-7 11-20 4-29-7-9-21-11-30-3l-244 192-249-193c-3-3-8-4-12-4z m256-750c-11 0-20 9-20 21v917c0 11 9 20 20 20 12 0 21-9 21-20v-917c0-12-9-21-21-21z" horiz-adv-x="1000" />

<glyph glyph-name="up" unicode="&#xe887;" d="M759 585c-4 0-9 2-12 4l-249 193-244-192c-9-7-22-6-30 3s-5 22 4 29l257 203c7 6 18 6 25 0l262-203c9-7 11-20 4-29-4-5-10-8-17-8z m-262-714c-11 0-20 9-20 21v916c0 12 9 21 20 21 12 0 21-9 21-21v-916c0-12-9-21-21-21z" horiz-adv-x="1000" />

<glyph glyph-name="up-2" unicode="&#xe888;" d="M813-150h-625c-12 0-21 9-21 21v625c0 5 2 10 5 14l313 334c8 8 22 8 30 0l313-334c3-4 5-9 5-14v-625c0-12-9-21-20-21z m-605 42h584v596l-292 311-292-311v-596z" horiz-adv-x="1000" />

<glyph glyph-name="up-3" unicode="&#xe889;" d="M687 507h-374c-7 0-14 4-18 10-3 7-3 15 1 22l187 291c7 12 27 12 35 0l186-291c4-7 5-15 1-22-4-6-11-10-18-10z m-336 41h298l-149 232-149-232z m150-687c-12 0-21 9-21 21v625c0 11 9 20 21 20s21-9 21-20v-625c0-12-10-21-21-21z" horiz-adv-x="1000" />

<glyph glyph-name="upload" unicode="&#xe88a;" d="M875-140h-750c-11 0-21 10-21 21v188c0 11 10 21 21 21s21-10 21-21v-167h708v167c0 11 10 21 21 21s21-10 21-21v-188c0-11-9-21-21-21z m-196 777c-5 0-10 2-14 6l-165 148-159-148c-9-8-22-7-30 1-7 8-7 22 2 29l173 161c8 7 20 7 28 0l179-160c8-8 9-21 1-30-4-4-10-7-15-7z m-179-672c-11 0-21 9-21 20v834c0 11 10 21 21 21s21-10 21-21v-834c0-11-9-20-21-20z" horiz-adv-x="1000" />

<glyph glyph-name="billing" unicode="&#xe88b;" d="M813 392h-625c-12 0-21 9-21 21v83c0 11 9 21 21 21h625c11 0 20-10 20-21v-83c0-12-9-21-20-21z m-605 41h584v42h-584v-42z m521-583h-308c-5 0-10 2-14 5l-149 125c-5 4-8 10-8 16v417c0 11 9 20 21 20h458c12 0 21-9 21-20v-542c0-12-9-21-21-21z m-301 42h280v500h-416v-386l136-114z m510 291h-188c-11 0-21 10-21 21s10 21 21 21h167v333h-834v-333h167c12 0 21-9 21-21s-9-21-21-21h-187c-12 0-21 10-21 21v375c0 12 9 21 21 21h875c11 0 20-9 20-21v-375c0-11-9-21-20-21z m-167 375h-542c-11 0-21 10-21 21v250c0 12 10 21 21 21h542c11 0 21-9 21-21v-250c0-11-10-21-21-21z m-521 42h500v208h-500v-208z m188-729c-12 0-21 9-21 21v83h-125c-12 0-21 9-21 21s9 21 21 21h146c11 0 20-10 20-21v-104c0-12-9-21-20-21z m88 202c-47 0-79 27-79 68 0 12 10 21 21 21 12 0 21-9 21-21 0-24 26-27 37-27 11 0 37 3 37 27 0 15-4 18-37 35l-18 9c-34 16-61 29-61 72 0 40 33 69 79 69 46 0 77-28 77-69 0-12-9-21-20-21-12 0-21 9-21 21 0 24-25 27-36 27-11 0-37-3-37-27 0-15 3-18 37-35l18-9c34-17 60-30 60-72 0-41-31-68-78-68z m-5 256c-6 0-11 2-15 6-4 4-6 10-6 15s2 11 6 15c8 8 22 8 29 0 4-4 7-10 7-15s-3-11-7-15c-3-4-9-6-14-6z m0-302c-6 0-11 2-15 6-4 5-6 10-6 15s2 10 6 15c8 7 22 7 29 0 5-5 7-10 7-15s-2-10-6-15c-4-4-10-6-15-6z" horiz-adv-x="1000" />

<glyph glyph-name="binocular" unicode="&#xe88c;" d="M167 111c-115 0-209 93-209 208s94 208 209 208 208-93 208-208-93-208-208-208z m0 375c-92 0-167-75-167-167s75-167 167-167 166 75 166 167-74 167-166 167z m104-188c-12 0-21 9-21 21 0 46-37 83-83 83-12 0-21 10-21 21s9 21 21 21c69 0 125-56 125-125 0-12-10-21-21-21z m562-187c-114 0-208 93-208 208s94 208 208 208 209-93 209-208-94-208-209-208z m0 375c-92 0-166-75-166-167s74-167 166-167 167 75 167 167-75 167-167 167z m105-188c-12 0-21 9-21 21 0 46-38 83-84 83-11 0-20 10-20 21s9 21 20 21c69 0 125-56 125-125 0-12-9-21-20-21z m-614 136l-36 21c49 89 121 135 212 135 139 0 195-102 213-135l-37-20c-26 48-73 113-176 113-76 0-134-37-176-114z m348-240l-5 0c-39 2-76 29-94 67-13 29-42 46-75 46-34 0-62-16-75-42-18-40-58-66-100-66v42c25 0 51 17 63 41 19 42 61 67 112 67 50 0 93-27 113-70 12-26 37-43 61-43v-42z m-172 188c-34 0-62 28-62 63 0 34 28 62 62 62s63-28 63-62c0-35-28-63-63-63z m0 83c-11 0-21-9-21-20 0-12 10-21 21-21s21 9 21 21c0 11-9 20-21 20z" horiz-adv-x="1000" />

<glyph glyph-name="bone" unicode="&#xe88d;" d="M854 133c-58 0-109 38-127 92h-454c-18-54-69-92-127-92-74 0-134 60-134 134 0 30 11 59 30 83-19 24-30 53-30 83 0 74 60 134 134 134 58 0 109-38 127-92h454c18 54 69 92 127 92 74 0 134-60 134-134 0-30-11-59-30-83 19-24 30-53 30-83 0-74-60-134-134-134z m-597 134h486c10 0 19-7 21-17 8-44 46-75 90-75 51 0 92 41 92 92 0 26-11 50-30 68-5 4-7 9-7 15s2 12 7 15c19 18 30 42 30 68 0 51-41 92-92 92-44 0-82-31-90-75-2-9-11-17-21-17h-486c-10 0-19 8-21 17-8 44-46 75-90 75-51 0-92-41-92-92 0-26 11-50 30-68 5-3 7-9 7-15s-2-11-7-15c-19-18-30-42-30-68 0-51 41-92 92-92 44 0 82 31 90 75 2 10 11 17 21 17z" horiz-adv-x="1000" />

<glyph glyph-name="box-close" unicode="&#xe88e;" d="M729-46h-625c-11 0-21 9-21 21v542c0 11 10 21 21 21h625c12 0 21-10 21-21v-542c0-12-9-21-21-21z m-604 42h583v500h-583v-500z m604-42c-3 0-7 1-10 3-10 6-14 18-8 28l164 287v432h-42c-11 0-20 10-20 21s9 21 20 21h63c11 0 21-9 21-21v-458c0-4-1-7-3-11l-167-291c-4-7-11-11-18-11z m-625 542c-4 0-9 1-13 4-9 8-10 21-3 30l167 208c4 5 10 8 16 8h625c8 0 15-5 19-12 3-8 2-16-3-22l-177-209c-8-9-21-10-30-2-8 7-9 20-2 29l148 174h-570l-161-200c-4-5-10-8-16-8z m396-167h-167c-11 0-20 10-20 21s9 21 20 21h167c12 0 21-9 21-21s-9-21-21-21z m-115 167c-4 0-9 2-13 5-9 7-10 20-2 29l177 209c7 8 20 9 29 2 9-8 10-21 2-29l-177-209c-4-5-10-7-16-7z" horiz-adv-x="1000" />

<glyph glyph-name="box-with-folders" unicode="&#xe88f;" d="M688-150h-584c-11 0-21 9-21 21v458c0 12 10 21 21 21h584c11 0 20-9 20-21v-458c0-12-9-21-20-21z m-563 42h542v416h-542v-416z m479 416h-416c-12 0-21 10-21 21v334c0 11 9 20 21 20h416c12 0 21-9 21-20v-334c0-11-9-21-21-21z m-396 42h375v292h-375v-292z m500-42h-41v417h-375v-83h-42v104c0 11 9 21 21 21h417c11 0 20-10 20-21v-438z m63 105c-12 0-21 9-21 20v375h-375v-41c0-12-9-21-21-21s-21 9-21 21v62c0 12 10 21 21 21h417c11 0 21-9 21-21v-396c0-11-10-20-21-20z m-83-105c-6 0-11 2-15 6-8 9-8 22 0 30l208 208c8 8 21 8 30 0 8-8 8-21 0-29l-209-209c-4-4-9-6-14-6z m14-452l-30 29 203 203v429h-125v41h146c11 0 21-9 21-20v-459c0-5-2-11-6-15l-209-208z m-244 327h-125c-11 0-20 10-20 21s9 21 20 21h125c12 0 21-9 21-21s-9-21-21-21z" horiz-adv-x="1000" />

<glyph glyph-name="brush" unicode="&#xe890;" d="M386 137c-6 0-11 2-15 6l-78 78c-4 5-7 12-5 18 48 279 567 565 640 565 10 0 16-3 19-7 12-12 6-31 3-41-34-109-297-571-561-618-1-1-2-1-3-1z m-55 106l62-62c227 52 474 467 514 576-108-39-525-277-576-514z m-264-347c-12 0-21 9-21 20 0 85 76 241 122 287 50 50 136 50 185 0 25-25 38-57 38-92 0-35-13-68-38-93-46-46-202-122-286-122z m194 304c-24 0-46-10-63-26-35-35-97-159-109-235 76 12 200 74 235 109 16 17 26 39 26 63 0 24-10 46-26 63-17 16-40 26-63 26z" horiz-adv-x="1000" />

<glyph glyph-name="bucket" unicode="&#xe891;" d="M500 358c-39 0-379 3-379 94 0 91 340 94 379 94 39 0 379-3 379-94 0-91-340-94-379-94z m0 146c-207 0-328-34-338-54 10-16 131-50 338-50s328 34 338 54c-10 16-131 50-338 50z m8-633c-169 0-233 74-253 106-1 2-2 4-3 6l-123 464c-3 11 4 22 15 25 11 3 22-3 25-15l123-460c18-28 72-85 216-85 135 0 188 52 208 84l122 461c3 12 15 18 26 15 11-3 18-14 15-25l-124-464c0-2-1-4-2-5-23-40-86-107-245-107z m351 562c-12 0-21 10-21 21 0 184-150 334-334 334-183 0-333-150-333-334 0-11-9-21-21-21s-21 10-21 21c0 207 169 375 375 375 207 0 375-168 375-375 0-11-9-21-20-21z" horiz-adv-x="1000" />

<glyph glyph-name="camera-3" unicode="&#xe892;" d="M854-4h-708c-81 0-146 65-146 146v333c0 80 65 146 146 146h304l35 71c3 8 11 12 19 12h208c8 0 15-4 18-11l36-72h88c81 0 146-66 146-146v-333c0-81-65-146-146-146z m-708 583c-57 0-104-46-104-104v-333c0-58 46-104 104-104h708c58 0 104 46 104 104v333c0 58-46 104-104 104h-100c-8 0-16 5-19 12l-36 72h-182l-35-72c-3-7-10-12-18-12h-318z m479-479c-126 0-229 103-229 229s103 229 229 229c126 0 229-102 229-229s-103-229-229-229z m0 417c-103 0-187-84-187-188s84-187 187-187c103 0 188 84 188 187s-85 188-188 188z m0-334c-80 0-146 66-146 146s66 146 146 146c81 0 146-65 146-146s-65-146-146-146z m0 250c-57 0-104-46-104-104s47-104 104-104c58 0 104 47 104 104s-46 104-104 104z m-333 188h-84c-11 0-20 9-20 21s9 21 20 21h84c11 0 21-10 21-21s-10-21-21-21z m-104-521c-12 0-21 9-21 21v417c0 11 9 20 21 20s20-9 20-20v-417c0-12-9-21-20-21z" horiz-adv-x="1000" />

<glyph glyph-name="camera-4" unicode="&#xe893;" d="M479-88h-333c-81 0-146 66-146 146v584c0 80 65 146 146 146h333c81 0 146-66 146-146v-584c0-80-65-146-146-146z m-333 834c-58 0-104-47-104-104v-584c0-57 46-104 104-104h333c58 0 104 47 104 104v584c0 57-46 104-104 104h-333z m88-740c-80 0-145 66-145 146s65 146 145 146 146-65 146-146-65-146-146-146z m0 250c-57 0-104-46-104-104s47-104 104-104 105 47 105 104-47 104-105 104z m167 209c-57 0-104 46-104 104s47 104 104 104 104-47 104-104-46-104-104-104z m0 166c-34 0-62-28-62-62s28-63 62-63 63 28 63 63-28 62-63 62z m578-385h-125c-11 0-21 9-21 21v250c0 11 10 21 21 21h125c12 0 21-10 21-21v-250c0-12-9-21-21-21z m-104 42h83v208h-83v-208z m-104-105c-12 0-21 10-21 21v375c0 12 9 21 21 21s21-9 21-21v-375c0-11-10-21-21-21z m-83-83c-12 0-21 9-21 21v542c0 11 9 20 21 20s20-9 20-20v-542c0-12-9-21-20-21z m166-104h-229c-11 0-21 9-21 21s10 21 21 21h208v500c0 11 10 20 21 20s21-9 21-20v-521c0-12-9-21-21-21z" horiz-adv-x="1000" />

<glyph glyph-name="candle" unicode="&#xe894;" d="M854-151h-708c-9 0-17 6-20 15l-42 125c-2 6-1 13 3 19 4 5 10 8 17 8h792c7 0 13-3 17-8 4-6 5-13 3-19l-42-125c-3-9-11-15-20-15z m-693 42h678l28 83h-734l28-83z m485 83h-333c-12 0-21 10-21 21v584c0 11 9 21 21 21h333c11 0 21-10 21-21v-584c0-11-10-21-21-21z m-313 42h292v542h-292v-542z m146 563c-11 0-21 9-21 21v41c0 12 10 21 21 21s21-9 21-21v-41c0-12-9-21-21-21z m0 63c-46 0-83 38-83 84 0 42 32 125 83 125 12 0 21-10 21-21 0-22 14-35 30-50 15-14 33-30 33-54 0-46-38-84-84-84z m-15 156c-13-17-26-50-26-72 0-23 18-42 41-42s42 19 42 42c0 6-10 15-20 24-12 12-28 27-37 48z m161-615h-21c-35 0-62 28-62 62v43c0 11-9 20-20 20-13 0-22-9-22-20v-43c0-34-28-62-62-62-35 0-63 28-63 62v64c0 23-18 41-40 41-12 0-22 9-22 20 0 12 9 21 20 21h2c45 0 82-36 82-82v-64c0-11 9-20 20-20 12 0 21 9 21 20v43c0 34 28 62 62 62 36 0 63-28 63-62v-43c0-11 9-20 21-20h21c12 0 21-10 21-21 0-12-9-21-21-21z" horiz-adv-x="1000" />

<glyph glyph-name="candy" unicode="&#xe895;" d="M667 183h-334c-92 0-166 75-166 167s74 167 166 167h334c92 0 166-75 166-167s-74-167-166-167z m-334 292c-69 0-125-56-125-125s56-125 125-125h334c69 0 125 56 125 125s-56 125-125 125h-334z m-62-146c-12 0-21 10-21 21 0 46 37 83 83 83h84c11 0 21-9 21-20s-10-21-21-21h-84c-23 0-41-19-41-42 0-11-10-21-21-21z m-250-153c-12 0-21 10-21 21v306c0 11 9 21 21 21 109 0 187-72 187-172v-4c0-99-78-172-187-172z m21 305v-262c74 8 125 59 125 129v4c0 70-51 121-125 129z m937-305c-108 0-187 73-187 172v4c0 100 79 172 187 172 12 0 21-10 21-21v-306c0-11-9-21-21-21z m-21 305c-74-8-125-59-125-129v-4c0-70 51-121 125-129v262z" horiz-adv-x="1000" />

<glyph glyph-name="chair" unicode="&#xe896;" d="M775-88h-541c-12 0-21 10-21 21v375c0 12 9 21 21 21h541c12 0 21-9 21-21v-375c0-11-9-21-21-21z m-521 42h500v334h-500v-334z m584 542h-42v90c0 89-76 160-174 160h-234c-98 0-175-70-175-160v-90h-42v90c0 113 95 202 217 202h234c121 0 216-89 216-202v-90l0 0z m-604-584h-84c-39 0-62 22-62 59v358c0 12 9 21 21 21s20-9 20-21v-358c0-10 2-17 21-17h63v417c0 11 9 21 21 21s20-10 20-21v-438c0-11-9-21-20-21z m-96 378c-68 0-120 51-120 118 0 68 51 120 118 120 67 0 118-55 118-124v-75c0-11-9-21-20-21s-21 10-21 21v75c0 46-34 82-77 82-43 0-76-33-76-78 0-44 33-76 78-76 11 0 21-10 21-21s-10-21-21-21z m722-378h-85c-11 0-21 10-21 21v438c0 11 10 21 21 21s21-10 21-21v-417h64c18 0 19 5 19 17v358c0 12 10 21 21 21s21-9 21-21v-358c0-37-22-59-61-59z m5 378c-11 0-21 10-21 21s10 21 21 21c44 0 75 31 75 76 0 46-29 78-72 78-47 0-72-41-72-82v-75c0-11-9-21-21-21-11 0-21 10-21 21v75c0 71 49 124 114 124 66 0 114-51 114-120 0-68-49-118-117-118z" horiz-adv-x="1000" />

<glyph glyph-name="control" unicode="&#xe897;" d="M958-119h-916c-12 0-21 10-21 21v500c0 12 9 21 21 21h916c12 0 21-9 21-21v-500c0-11-9-21-21-21z m-895 42h875v458h-875v-458z m179 155c-57 0-104 47-104 104s47 104 104 104 104-46 104-104-46-104-104-104z m0 167c-34 0-62-28-62-63 0-34 28-62 62-62s63 28 63 62c0 35-28 63-63 63z m500-167c-57 0-104 47-104 104s47 104 104 104c58 0 104-46 104-104s-46-104-104-104z m0 167c-34 0-62-28-62-63 0-34 28-62 62-62 35 0 63 28 63 62 0 35-28 63-63 63z m-159 136h-166c-12 0-21 10-21 21v84c0 11 9 20 21 20h166c12 0 21-9 21-20v-84c0-11-9-21-21-21z m-145 42h125v42h-125v-42z m62 63c-11 0-21 9-21 20v125c0 12 10 21 21 21s21-9 21-21v-125c0-11-9-20-21-20z m83-521h-166c-12 0-21 9-21 20v334c0 11 9 21 21 21h166c12 0 21-10 21-21v-334c0-11-9-20-21-20z m-145 41h125v292h-125v-292z m83 209h-42c-11 0-21 9-21 21s10 20 21 20h42c11 0 21-9 21-20s-10-21-21-21z m0-125h-42c-11 0-21 9-21 21s10 20 21 20h42c11 0 21-9 21-20s-10-21-21-21z m38 579c-5 0-11 2-15 7-24 24-64 24-88 0-8-9-22-9-30 0-8 8-8 21 0 29 41 41 107 41 148 0 8-8 8-21 0-29-4-5-10-7-15-7z m59 59c-5 0-11 2-15 6-55 55-151 55-206 0-8-8-21-8-30 0-8 8-8 22 0 30 36 35 83 55 133 55s97-20 133-55c8-8 8-21 0-30-4-4-10-6-15-6z" horiz-adv-x="1000" />

<glyph glyph-name="control-2" unicode="&#xe898;" d="M501-136h-2c-114 0-207 93-207 207v439c0 11 9 21 21 21h375c11 0 20-10 20-21v-439c0-114-92-207-207-207z m-168 625v-418c0-91 75-165 166-165h2c92 0 166 74 166 165v418h-334z m169-194c-35 0-63 28-63 62s28 63 63 63 62-29 62-63-28-62-62-62z m0 83c-12 0-21-10-21-21s9-21 21-21 21 10 21 21-10 21-21 21z m59 225c-6 0-11 3-15 7-24 23-65 23-88 0-8-8-22-8-30 0-8 8-8 21 0 29 39 39 108 39 148 0 8-8 8-21 0-29-5-4-10-7-15-7z m59 59c-6 0-11 2-15 7-57 56-149 56-206 0-9-9-22-9-30 0-8 8-8 21 0 29 73 73 192 73 265 0 8-8 8-21 0-29-4-5-9-7-14-7z m59 59c-6 0-11 2-15 6-90 90-235 90-324 0-8-8-22-8-30 0-8 8-8 22 0 30 106 105 278 105 383 0 8-8 8-22 0-30-4-4-9-6-14-6z m-177-593c-35 0-63 28-63 62s28 63 63 63 62-28 62-63-28-62-62-62z m0 83c-12 0-21-9-21-21s9-20 21-20 21 9 21 20-10 21-21 21z" horiz-adv-x="1000" />

<glyph glyph-name="crop-2" unicode="&#xe899;" d="M917 100h-646c-12 0-21 9-21 21v646c0 11 9 21 21 21s21-10 21-21v-625h625c11 0 21-10 21-21s-10-21-21-21z m-188-188c-11 0-21 10-21 21v625h-625c-11 0-20 10-20 21s9 21 20 21h646c12 0 21-9 21-21v-646c0-11-9-21-21-21z" horiz-adv-x="1000" />

<glyph glyph-name="crown-2" unicode="&#xe89a;" d="M875-50h-750c-11 0-21 9-21 20s10 21 21 21h750c12 0 21-9 21-21s-9-20-21-20z m-11 83h-728c-10 0-18 6-20 15l-94 350c-2 7 0 15 5 20 5 5 12 8 19 6l307-70 127 382c3 9 11 14 20 14l0 0c9 0 17-5 20-14l128-385 305 74c8 1 15-1 20-6 5-6 7-13 5-20l-93-351c-3-9-11-15-21-15z m-712 42h696l81 301-290-70c-11-3-21 3-25 13l-114 345-114-341c-3-11-14-17-24-14l-291 67 81-301z" horiz-adv-x="1000" />

<glyph glyph-name="dashboard" unicode="&#xe89b;" d="M958 100h-916c-12 0-21 9-21 21 0 282 197 479 479 479s479-197 479-479c0-12-9-21-21-21z m-895 42h874c-9 250-182 416-437 416s-428-166-437-416z m541-21h-41c0 34-28 62-63 62s-62-28-62-62h-42c0 57 47 104 104 104s104-47 104-104z m-149 49c-6 0-12 3-16 8l-124 159c-7 9-5 22 4 29 9 8 22 6 29-3l124-159c7-9 5-22-4-29-4-3-8-5-13-5z m-284 2c-1 0-3 0-4 1l-41 9c-11 2-18 13-16 25 3 11 14 18 25 15l41-9c11-2 18-13 16-24-3-10-11-17-21-17z m72 145c-5 0-10 2-14 5l-31 27c-9 7-10 20-3 29 8 9 21 10 30 3l31-27c9-8 10-21 3-30-4-4-10-7-16-7z m131 94c-8 0-16 5-19 14l-16 38c-4 11 1 23 12 27 11 4 23-1 27-11l15-39c5-11 0-23-11-27-3-1-5-2-8-2z m161 22c-1 0-2 0-3 0-11 2-20 12-18 23l4 42c1 11 12 19 23 18 12-1 20-11 19-23l-5-41c-1-11-10-19-20-19z m151-56c-4 0-8 1-11 4-10 6-12 19-6 29l24 34c6 10 19 12 28 6 10-7 12-20 6-29l-23-34c-4-6-11-10-18-10z m108-120c-7 0-14 4-18 11-5 10-1 23 9 28l36 20c11 5 23 1 29-9 5-10 1-23-9-28l-37-19c-3-2-6-3-10-3z" horiz-adv-x="1000" />

<glyph glyph-name="data-center" unicode="&#xe89c;" d="M198 621c-34 0-63 28-63 62s29 63 63 63 62-28 62-63-28-62-62-62z m0 83c-12 0-21-9-21-21s9-20 21-20 21 9 21 20-10 21-21 21z m0-375c-34 0-63 28-63 63s29 62 63 62 62-28 62-62-28-63-62-63z m0 84c-12 0-21-10-21-21s9-21 21-21 21 9 21 21-10 21-21 21z m656-480h-708c-81 0-146 66-146 146v625c0 81 65 146 146 146h708c81 0 146-65 146-146v-625c0-80-65-146-146-146z m-708 875c-58 0-104-46-104-104v-625c0-57 46-104 104-104h708c58 0 104 47 104 104v625c0 58-46 104-104 104h-708z m52-770c-34 0-63 28-63 62s29 63 63 63 62-28 62-63-28-62-62-62z m0 83c-12 0-21-9-21-21s9-21 21-21 21 10 21 21-10 21-21 21z m115-271h-167c-12 0-21 9-21 21v83c0 12 9 21 21 21h167c11 0 20-9 20-21v-83c0-12-9-21-20-21z m-146 42h125v41h-125v-41z m687-42h-166c-12 0-21 9-21 21v83c0 12 9 21 21 21h166c12 0 21-9 21-21v-83c0-12-9-21-21-21z m-146 42h125v41h-125v-41z m250 333h-916c-12 0-21 9-21 21s9 21 21 21h916c12 0 21-10 21-21s-9-21-21-21z m0 292h-916c-12 0-21 9-21 21s9 20 21 20h916c12 0 21-9 21-20s-9-21-21-21z" horiz-adv-x="1000" />

<glyph glyph-name="data-cloud" unicode="&#xe89d;" d="M854-108h-708c-81 0-146 65-146 146v41c0 81 65 146 146 146h708c81 0 146-65 146-146v-41c0-81-65-146-146-146z m-708 291c-58 0-104-46-104-104v-41c0-58 46-105 104-105h708c58 0 104 47 104 105v41c0 58-46 104-104 104h-708z m677-187c-34 0-63 28-63 62s29 63 63 63 62-28 62-63-28-62-62-62z m0 83c-11 0-21-9-21-21s10-20 21-20 21 9 21 20-10 21-21 21z m-785 42c-1 0-2 1-3 1-11 1-19 12-18 23l71 524c11 80 79 139 159 139h506c80 0 148-60 159-139l69-521c1-12-7-22-18-24-12-1-22 7-24 18l-68 522c-8 58-59 103-118 103h-506c-59 0-110-44-118-103l-70-524c-2-11-11-19-21-19z m623 187h-352c-66 0-122 57-122 125 0 68 56 125 122 125 13 0 26-2 38-7 26 66 89 110 161 110 49 0 95-21 128-58 91 15 171-57 171-146 0-82-66-149-146-149z m-352 208c-43 0-80-38-80-83 0-45 37-83 80-83h352c56 0 104 49 104 107 0 57-48 106-104 106-9 0-18-1-27-4-8-2-17 1-22 8-25 33-63 52-104 52-61 0-114-41-128-101-2-6-6-12-12-14-6-3-13-2-19 1-13 7-26 11-40 11z" horiz-adv-x="1000" />

<glyph glyph-name="data-download" unicode="&#xe89e;" d="M833-108h-666c-81 0-146 65-146 146v41c0 81 65 146 146 146h666c81 0 146-65 146-146v-41c0-81-65-146-146-146z m-666 291c-58 0-104-46-104-104v-41c0-58 46-105 104-105h666c58 0 105 47 105 105v41c0 58-47 104-105 104h-666z m635-187c-34 0-62 28-62 62s28 63 62 63 63-28 63-63-28-62-63-62z m0 83c-11 0-21-9-21-21s10-20 21-20 21 9 21 20-9 21-21 21z m-743 42c-1 0-2 1-3 1-11 1-19 12-18 23l71 524c11 80 79 139 159 139h464c80 0 148-60 159-139l69-521c1-12-7-22-18-24-11-1-22 7-24 18l-69 522c-7 58-58 103-117 103h-464c-59 0-110-45-118-103l-70-525c-2-10-11-18-21-18z m441 250c-11 0-21 9-21 21v291c0 12 10 21 21 21s21-9 21-21v-291c0-12-9-21-21-21z m0-42c-4 0-8 1-11 4l-188 125c-10 6-12 19-6 29 7 9 20 12 29 5l176-117 176 117c10 7 22 4 29-5 6-10 4-23-6-29l-187-125c-4-3-8-4-12-4z" horiz-adv-x="1000" />

<glyph glyph-name="data-storage" unicode="&#xe89f;" d="M854-108h-708c-81 0-146 65-146 146v41c0 81 65 146 146 146h708c81 0 146-65 146-146v-41c0-81-65-146-146-146z m-708 291c-58 0-104-46-104-104v-41c0-58 46-105 104-105h708c58 0 104 47 104 105v41c0 58-46 104-104 104h-708z m677-187c-34 0-63 28-63 62s29 63 63 63 62-28 62-63-28-62-62-62z m0 83c-11 0-21-9-21-21s10-20 21-20 21 9 21 20-10 21-21 21z m-785 42c-1 0-2 1-3 1-11 1-19 12-18 23l71 524c11 80 79 139 159 139h506c80 0 148-60 159-139l69-521c1-12-7-22-18-24-12-1-22 7-24 18l-69 522c-7 58-58 103-117 103h-506c-59 0-110-45-118-103l-70-524c-2-11-11-19-21-19z" horiz-adv-x="1000" />

<glyph glyph-name="delete-file" unicode="&#xe8a0;" d="M542-150h-396c-12 0-21 9-21 21v726c0 5 2 10 5 14l209 232c4 5 9 7 15 7h500c12 0 21-9 21-21v-604c0-11-9-21-21-21s-21 10-21 21v583h-469l-197-219v-697h375c11 0 21-10 21-21s-10-21-21-21z m-188 708h-187c-12 0-21 10-21 21s9 21 21 21h166v208c0 12 10 21 21 21s21-9 21-21v-229c0-11-9-21-21-21z m491-657c-6 0-11 2-15 6l-148 148c-8 8-8 21 0 29 9 8 22 8 30 0l147-147c8-8 8-22 0-30-4-4-9-6-14-6z m-148 0c-5 0-10 2-15 6-8 8-8 22 0 30l148 147c8 8 21 8 29 0 8-8 8-21 0-29l-147-148c-4-4-9-6-15-6z" horiz-adv-x="1000" />

<glyph glyph-name="dice" unicode="&#xe8a1;" d="M854-150h-708c-81 0-146 65-146 146v708c0 81 65 146 146 146h708c81 0 146-65 146-146v-708c0-81-65-146-146-146z m-708 958c-58 0-104-46-104-104v-708c0-58 46-104 104-104h708c58 0 104 46 104 104v708c0 58-46 104-104 104h-708z m354-562c-57 0-104 47-104 104s47 104 104 104 104-46 104-104-47-104-104-104z m0 167c-34 0-62-28-62-63s28-62 62-62 63 28 63 62-28 63-63 63z m-270 103c-57 0-104 47-104 104 0 58 47 104 104 104s104-46 104-104c0-57-46-104-104-104z m0 167c-34 0-62-29-62-63 0-34 28-62 62-62s63 28 63 62c0 34-28 63-63 63z m542-167c-58 0-104 47-104 104 0 58 46 104 104 104 57 0 104-46 104-104 0-57-47-104-104-104z m0 167c-35 0-63-29-63-63 0-34 28-62 63-62 34 0 62 28 62 62 0 34-28 63-62 63z m-542-709c-57 0-104 47-104 104 0 58 47 105 104 105s104-47 104-105c0-57-46-104-104-104z m0 167c-34 0-62-28-62-63 0-34 28-62 62-62s63 28 63 62c0 35-28 63-63 63z m542-167c-58 0-104 47-104 104 0 58 46 105 104 105 57 0 104-47 104-105 0-57-47-104-104-104z m0 167c-35 0-63-28-63-63 0-34 28-62 63-62 34 0 62 28 62 62 0 35-28 63-62 63z" horiz-adv-x="1000" />

<glyph glyph-name="drill" unicode="&#xe8a2;" d="M173-27c-15 0-29 2-43 6-77 24-120 106-97 183l87 281c-59 20-99 75-99 138 0 81 65 146 146 146h458c81 0 146-65 146-146s-65-146-146-146h-173c-18 0-33-11-38-27l-102-332c-19-62-75-103-139-103z m-6 712c-58 0-104-46-104-104 0-51 36-94 87-102 6-1 11-5 14-10 3-5 4-11 2-17l-93-303c-17-54 14-113 69-130 55-17 114 15 130 69l103 332c10 34 41 57 77 57h173c57 0 104 47 104 104s-47 104-104 104l-458 0 0 0z m791-125h-208c-11 0-21 10-21 21 0 12 10 21 21 21h208c12 0 21-9 21-21 0-11-9-21-21-21z m-708 42h-42c-11 0-20 9-20 21 0 11 9 21 20 21h42c12 0 21-10 21-21 0-12-9-21-21-21z m0-83h-42c-11 0-20 9-20 21 0 11 9 20 20 20h42c12 0 21-9 21-20 0-12-9-21-21-21z m187-250h-62c-11 0-21 9-21 21 0 11 10 20 21 20h47l53 153c3 11 15 17 26 13s17-16 13-26l-57-167c-3-9-11-14-20-14z" horiz-adv-x="1000" />

<glyph glyph-name="duplicate-layer" unicode="&#xe8a3;" d="M708 58h-625c-11 0-20 10-20 21v750c0 12 9 21 20 21h625c12 0 21-9 21-21v-750c0-11-9-21-21-21z m-604 42h584v708h-584v-708z m813-250h-625c-12 0-21 9-21 21v187c0 12 9 21 21 21s21-9 21-21v-166h583v708h-167c-11 0-21 9-21 21s10 21 21 21h188c11 0 21-10 21-21v-750c0-12-10-21-21-21z m-625 229c-12 0-21 10-21 21v42c0 11 9 21 21 21s21-10 21-21v-42c0-11-10-21-21-21z m0 125c-12 0-21 10-21 21v42c0 11 9 21 21 21s21-10 21-21v-42c0-11-10-21-21-21z m0 125c-12 0-21 10-21 21v42c0 11 9 21 21 21s21-10 21-21v-42c0-11-10-21-21-21z m0 125c-12 0-21 10-21 21v42c0 11 9 21 21 21s21-10 21-21v-42c0-11-10-21-21-21z m0 125c-12 0-21 10-21 21v21c0 11 9 21 21 21h21c11 0 20-10 20-21s-9-21-20-21c0-11-10-21-21-21z m396 21h-42c-12 0-21 9-21 21s9 21 21 21h42c11 0 20-10 20-21s-9-21-20-21z m-125 0h-42c-12 0-21 9-21 21s9 21 21 21h42c11 0 20-10 20-21s-9-21-20-21z m-125 0h-42c-12 0-21 9-21 21s9 21 21 21h42c11 0 20-10 20-21s-9-21-20-21z" horiz-adv-x="1000" />

<glyph glyph-name="electricity" unicode="&#xe8a4;" d="M968-75c0 0-1 0-1 0h-935c-7 0-14 3-18 10-4 6-4 14 0 21l468 810c7 13 28 13 36 0l465-806c4-4 6-9 6-15 0-11-9-20-21-20z m-900 41h863l-431 748-432-748z m435 16c-1 0-2 0-4 0-9 2-17 10-17 20l-3 198-107-3c-8 1-13 3-17 8-4 4-6 11-4 17l45 227c2 10 10 17 20 17h125c7 0 13-3 17-8 4-6 5-13 3-19l-32-98h96c6 0 13-3 17-9 4-5 5-13 2-19l-121-318c-4-8-11-13-20-13z m-3 260c5 0 10-2 14-5 4-4 6-10 6-15l2-111 72 189h-94c-7 0-13 3-17 8-4 6-5 13-3 19l32 98h-79l-36-185 102 2c0 0 0 0 1 0z" horiz-adv-x="1000" />

<glyph glyph-name="factory" unicode="&#xe8a5;" d="M979-126h-687c-12 0-21 10-21 21s9 21 21 21h666v417h-666c-12 0-21 9-21 21s9 21 21 21h687c12 0 21-10 21-21v-459c0-11-9-21-21-21z m-666 0h-292c-6 0-12 3-16 7-4 5-6 11-5 17l84 791c1 11 10 19 20 19h125c11 0 20-8 21-19l83-791c1-6-1-12-5-17-4-4-10-7-15-7z m-269 42h245l-79 750h-87l-79-750z m588 745c-63 0-117 20-169 39-56 21-109 40-169 33-10-1-19 5-22 14-3 10 1 20 9 25 65 36 124 54 181 54 58 0 106-18 152-35 44-16 85-31 134-31 26 0 52 4 79 13 9 4 20-1 25-10s2-21-7-27c-74-50-144-75-213-75z m-254 109c35-7 67-19 99-31 51-18 99-36 155-36 30 0 60 5 91 16-45 4-85 19-123 33-45 16-87 32-138 32-27 0-55-5-84-14z m476-687h-166c-12 0-21 9-21 21v166c0 12 9 21 21 21h166c12 0 21-9 21-21v-166c0-12-9-21-21-21z m-146 42h125v125h-125v-125z m-145-42h-167c-12 0-21 9-21 21v166c0 12 9 21 21 21h167c11 0 20-9 20-21v-166c0-12-9-21-20-21z m-146 42h125v125h-125v-125z" horiz-adv-x="1000" />

<glyph glyph-name="feather" unicode="&#xe8a6;" d="M500-124c-11 0-21 10-21 21v125c0 12 10 21 21 21s21-9 21-21v-125c0-11-9-21-21-21z m22 146h-44c-7 0-13 3-17 9-150 203-142 481 21 783 7 13 29 13 36 0 163-302 171-580 21-783-4-6-10-9-17-9z m-34 42h24c92 131 160 355-12 695-171-340-104-564-12-695z m-10 80c-5 0-10 2-14 5l-91 83c-9 7-10 21-2 29 8 9 21 9 29 2l92-83c8-7 9-20 1-29-4-5-9-7-15-7z m0 134c-5 0-10 1-14 5l-98 88c-8 8-9 21-1 29 7 9 21 10 29 2l98-88c8-8 9-21 1-29-4-5-9-7-15-7z m18 115c-5 0-10 2-14 5l-98 88c-8 8-9 21-1 30 7 8 21 9 29 1l98-87c8-8 9-21 1-30-4-5-9-7-15-7z" horiz-adv-x="1000" />

<glyph glyph-name="file" unicode="&#xe8a7;" d="M854-150h-708c-12 0-21 9-21 21v726c0 5 2 10 5 14l209 232c4 5 9 7 15 7h500c12 0 21-9 21-21v-958c0-12-9-21-21-21z m-687 42h666v916h-469l-197-219v-697z m187 666h-187c-12 0-21 10-21 21s9 21 21 21h166v208c0 12 10 21 21 21s21-9 21-21v-229c0-11-9-21-21-21z" horiz-adv-x="1000" />

<glyph glyph-name="file-clipboard-file-+-text" unicode="&#xe8a8;" d="M813-150h-625c-12 0-21 9-21 21v833c0 12 9 21 21 21h625c11 0 20-9 20-21v-833c0-12-9-21-20-21z m-605 42h584v791h-584v-791z m480 83h-375c-12 0-21 9-21 21v472c0 6 2 12 7 16l123 111c4 3 9 5 14 5h252c11 0 20-9 20-21v-583c0-12-9-21-20-21z m-355 42h334v541h-223l-111-99v-442z m105 416h-105c-11 0-20 10-20 21s9 21 20 21h84v83c0 12 9 21 21 21s20-9 20-21v-104c0-11-9-21-20-21z m250 271c-12 0-21 10-21 21v23c0 8-16 19-29 19h-107c-11 0-21 9-21 21 0 11 0 17-1 20-2 0-6 0-9 0h-5c-5 0-12 0-14 0 0-1-2-5-2-20 0-12-9-21-21-21h-106c-10 0-19-8-19-19v-23c0-11-9-21-21-21s-20 10-20 21v23c0 34 27 60 60 60h87c6 38 31 42 56 42h5c33 0 47-11 51-42h87c33 0 70-26 70-60v-23c0-11-9-21-20-21z m-105-354h-166c-12 0-21 9-21 21s9 21 21 21h166c12 0 21-10 21-21s-9-21-21-21z m0-125h-166c-12 0-21 9-21 21 0 11 9 21 21 21h166c12 0 21-10 21-21 0-12-9-21-21-21z m0-125h-166c-12 0-21 9-21 21 0 11 9 21 21 21h166c12 0 21-10 21-21 0-12-9-21-21-21z" horiz-adv-x="1000" />

<glyph glyph-name="file-clipboard" unicode="&#xe8a9;" d="M813-150h-625c-12 0-21 9-21 21v833c0 12 9 21 21 21h625c11 0 20-9 20-21v-833c0-12-9-21-20-21z m-605 42h584v791h-584v-791z m438 166h-292c-11 0-21 10-21 21v337c0 6 3 12 8 16l101 80c3 3 8 5 13 5h191c11 0 21-10 21-21v-417c0-11-10-21-21-21z m-271 42h250v375h-163l-87-69v-306z m104 292h-104c-11 0-21 9-21 21s10 20 21 20h83v42c0 12 10 21 21 21s21-9 21-21v-62c0-12-9-21-21-21z m209 312c-12 0-21 10-21 21v23c0 8-16 19-29 19h-107c-11 0-21 9-21 21 0 11 0 17-1 20-2 0-6 0-9 0h-5c-5 0-12 0-14 0 0-1-2-5-2-20 0-12-9-21-21-21h-106c-10 0-19-8-19-19v-23c0-11-9-21-21-21s-20 10-20 21v23c0 34 27 60 60 60h87c6 38 31 42 56 42h5c33 0 47-11 51-42h87c33 0 70-26 70-60v-23c0-11-9-21-20-21z" horiz-adv-x="1000" />

<glyph glyph-name="file-copy" unicode="&#xe8aa;" d="M813-67h-334c-11 0-21 10-21 21v337c0 6 3 12 8 16l101 80c3 3 8 5 13 5h233c11 0 20-10 20-21v-417c0-11-9-21-20-21z m-313 42h292v375h-205l-87-69v-306z m104 292h-104c-11 0-21 9-21 21s10 20 21 20h83v42c0 12 10 21 21 21s21-9 21-21v-62c0-12-9-21-21-21z m292-250h-21c-11 0-21 9-21 21s10 20 21 20c0 12 9 21 21 21s21-9 21-21v-20c0-12-10-21-21-21z m0 187c-12 0-21 10-21 21v42c0 11 9 21 21 21s21-10 21-21v-42c0-11-10-21-21-21z m0 209c-12 0-21 9-21 20-11 0-21 10-21 21s10 21 21 21h21c11 0 21-9 21-21v-21c0-11-10-20-21-20z m-114 20h-23c-11 0-21 10-21 21s10 21 21 21h23c12 0 21-9 21-21s-9-21-21-21z m-136-20c-12 0-21 9-21 20v21c0 12 9 21 21 21h21c11 0 21-9 21-21s-10-21-21-21c0-11-10-20-21-20z m-146-563h-396c-11 0-21 9-21 21v726c0 5 2 10 6 14l208 232c4 5 10 7 16 7h500c11 0 20-9 20-21v-271c0-11-9-20-20-20s-21 9-21 20v250h-470l-197-219v-697h375c12 0 21-10 21-21s-9-21-21-21z m-187 708h-188c-11 0-21 10-21 21s10 21 21 21h167v208c0 12 9 21 21 21s20-9 20-21v-229c0-11-9-21-20-21z" horiz-adv-x="1000" />

<glyph glyph-name="file-edit" unicode="&#xe8ab;" d="M558-76c-5 0-10 2-14 6-6 6-8 14-5 22l58 146c1 3 2 5 4 7l160 160c8 8 21 8 29 0l89-89c4-3 6-9 6-14 0-6-2-11-6-15l-160-160c-2-2-4-3-7-4l-146-58c-2-1-5-1-8-1z m76 155l-38-98 97 39 142 142-59 59-142-142z m230 53l-29 30 42 42c13 13 8 45-3 56-11 10-43 16-56 3l-42-42-30 29 43 43c32 32 90 20 114-4 24-24 36-82 4-114l-43-43z m-373-282h-396c-12 0-21 9-21 21v726c0 5 2 10 5 14l209 232c4 5 9 7 15 7h500c12 0 21-9 21-21v-437c0-12-9-21-21-21-11 0-21 9-21 21v416h-470l-196-219v-697h375c11 0 20-10 20-21s-9-21-20-21z m-188 708h-187c-12 0-21 10-21 21s9 21 21 21h166v208c0 12 10 21 21 21s21-9 21-21v-229c0-11-9-21-21-21z" horiz-adv-x="1000" />

<glyph glyph-name="file-horizontal" unicode="&#xe8ac;" d="M979-25h-958c-12 0-21 9-21 21v476c0 5 2 10 5 14l209 232c4 5 9 7 15 7h750c12 0 21-9 21-21v-708c0-12-9-21-21-21z m-937 42h916v666h-719l-197-219v-447z m187 416h-187c-12 0-21 10-21 21s9 21 21 21h166v208c0 12 10 21 21 21s21-9 21-21v-229c0-11-9-21-21-21z" horiz-adv-x="1000" />

<glyph glyph-name="files" unicode="&#xe8ad;" d="M792-150h-709c-11 0-20 9-20 21v642c0 5 1 10 5 14l208 233c4 4 10 7 16 7h500c11 0 21-10 21-21v-875c0-12-10-21-21-21z m-688 42h667v833h-470l-197-220v-613z m813 41h-104c-12 0-21 10-21 21s9 21 21 21h83v833h-470l-72-76c-8-9-22-9-30-1-8 8-9 21-1 29l79 84c4 4 9 6 15 6h500c11 0 21-9 21-21v-875c0-11-10-21-21-21z m-625 542h-188c-11 0-21 9-21 21s10 21 21 21h167v208c0 12 9 21 21 21s21-9 21-21v-229c0-12-10-21-21-21z" horiz-adv-x="1000" />

<glyph glyph-name="file-zip" unicode="&#xe8ae;" d="M854-150h-708c-12 0-21 9-21 21v726c0 5 2 10 5 14l209 232c4 5 9 7 15 7h500c12 0 21-9 21-21v-958c0-12-9-21-21-21z m-687 42h666v916h-469l-197-219v-697z m187 666h-187c-12 0-21 10-21 21s9 21 21 21h166v208c0 12 10 21 21 21s21-9 21-21v-229c0-11-9-21-21-21z m292 42h-125c-12 0-21 9-21 21v208c0 12 9 21 21 21h125c11 0 21-9 21-21v-208c0-12-10-21-21-21z m-104 42h83v166h-83v-166z m83-84h-42c-11 0-20 10-20 21s9 21 20 21h42c12 0 21-9 21-21s-9-21-21-21z m-42-41h-41c-12 0-21 9-21 21s9 20 21 20h41c12 0 21-9 21-20s-9-21-21-21z m42-42h-42c-11 0-20 9-20 21s9 21 20 21h42c12 0 21-10 21-21s-9-21-21-21z m-42-42h-41c-12 0-21 10-21 21s9 21 21 21h41c12 0 21-9 21-21s-9-21-21-21z m42-41h-42c-11 0-20 9-20 21s9 20 20 20h42c12 0 21-9 21-20s-9-21-21-21z m-42-42h-41c-12 0-21 9-21 21s9 21 21 21h41c12 0 21-10 21-21s-9-21-21-21z m42-42h-42c-11 0-20 10-20 21 0 12 9 21 20 21h42c12 0 21-9 21-21 0-11-9-21-21-21z m-42-41h-41c-12 0-21 9-21 21s9 20 21 20h41c12 0 21-9 21-20s-9-21-21-21z m42-42h-42c-11 0-20 9-20 21s9 21 20 21h42c12 0 21-10 21-21s-9-21-21-21z m-42-42h-41c-12 0-21 10-21 21s9 21 21 21h41c12 0 21-9 21-21s-9-21-21-21z m42-41h-42c-11 0-20 9-20 21s9 20 20 20h42c12 0 21-9 21-20s-9-21-21-21z m-42-42h-41c-12 0-21 9-21 21s9 21 21 21h41c12 0 21-10 21-21s-9-21-21-21z m42-42h-42c-11 0-20 10-20 21s9 21 20 21h42c12 0 21-9 21-21s-9-21-21-21z m-42-41h-41c-12 0-21 9-21 21s9 20 21 20h41c12 0 21-9 21-20s-9-21-21-21z m42-42h-42c-11 0-20 9-20 21s9 21 20 21h42c12 0 21-10 21-21s-9-21-21-21z m-42-42h-41c-12 0-21 10-21 21s9 21 21 21h41c12 0 21-9 21-21s-9-21-21-21z m42-41h-42c-11 0-20 9-20 20s9 21 20 21h42c12 0 21-9 21-21s-9-20-21-20z" horiz-adv-x="1000" />

<glyph glyph-name="filter-2" unicode="&#xe8af;" d="M417-37c-4 0-7 1-11 3-6 3-10 10-10 18v371l-351 347c-6 5-8 14-5 22 3 8 11 13 19 13h882c8 0 16-5 19-13 3-8 1-17-5-22l-351-347v-276c0-8-4-15-10-18l-167-96c-3-1-7-2-10-2z m-307 733l321-317c4-4 7-10 7-15v-344l125 71v273c0 5 2 11 6 15l321 317h-780z" horiz-adv-x="1000" />

<glyph glyph-name="flash-2" unicode="&#xe8b0;" d="M440-135c-2 0-4 0-6 1-10 3-16 12-15 22l40 364h-271c-7 0-12 2-16 7-4 5-6 11-5 17l90 542c2 10 10 17 20 17h330c7 0 13-3 17-9 4-6 5-14 2-20l-113-263h300c7 0 14-4 18-10s3-15 0-21l-373-637c-4-6-11-10-18-10z m-228 428h270c6 0 11-2 15-6s6-11 6-17l-32-290 305 522h-294c-7 0-14 3-18 9-3 6-4 13-1 20l112 263h-280l-83-501z" horiz-adv-x="1000" />

</font>
</defs>
</svg>
